Поиск

2021 Joshua Cavanagh-Brierley - Joy in Bewilderment {Ubuntu Music} [24-48]

2021 Joshua Cavanagh-Brierley - Joy in Bewilderment {Ubuntu Music} [24-48]
Стили:
Дата записи диска:
2 февраля 2018
Место записи:
Low Four Studios, Manchester, UK
Дата издания диска:
16 июля 2021
Издатель (лейбл):
Номер по каталогу:
UBU0084
Носитель:
WEB
Формат:
PCM
Тип рипа:
tracks
Контейнер:
FLAC (*.flac)
Количество каналов:
2.0
Разрядность/ЧД:
24/48
Битрейт аудио:
lossless
Время звучания:
00:56:05
Наличие сканов:
только обложка

Треклист:

1. Joy In Bewilderment  07:55
2. Brew  05:53
3. I'll Do As I Please (feat. Chris Potter)  09:06
4. Forbidden Words (feat. Caoilfhionn Rose Birley)  13:28
5. Attachment  07:23
6. Ophelia's Arrival  04:52
7. You Can't Whistle a Haircut  07:25

Состав:
  • GAVIN HIBBERD — Trumpet
  • SAM HEALEY — Alto Sax
  • KYRAN MATTHEWS — Tenor Sax
  • Chris Potter — Tenor Sax
  • ANTHONY BROWN — Baritone Sax
  • ELLIE WHITLEY — Tenor Trombone
  • RICH McVEIGH — Tenor Trombone & Bass Trombone
  • CAOILFHIONN ROSE BIRLEY — Vocals
  • DANIEL BREW — Guitar
  • DANIEL WELLENS — Piano & Keys
  • JOSHUA CAVANAGH-BRIERLEY – Bass, Double Bass & Piano
  • ALAN TAYLOR — Drums
  • GRANT KERSHAW — Drums
  • CRAIG HANSON — Drums
  • Strings – THE AMIKA QUARTET
  • SIMMY SINGH — Violin
  • LAURA SENIOR — Violin
  • LUCY NOLAN — Viola
  • PEGGY NOLAN — Cello
Лог проверки качества
foobar2000 1.4.2 / Dynamic Range Meter 1.1.1
log date: 2021-07-18 17:34:30

--------------------------------------------------------------------------------
Analyzed: Joshua Cavanagh-Brierley / Joy in Bewilderment
--------------------------------------------------------------------------------

DR         Peak         RMS     Duration Track
--------------------------------------------------------------------------------
DR9       -2.25 dB   -14.72 dB      7:56 01-Joy In Bewilderment
DR8       -0.42 dB   -11.29 dB      5:53 02-Brew
DR8       -0.44 dB   -10.89 dB      9:06 03-I'll Do As I Please (feat. Chris Potter)
DR8       -0.40 dB   -12.45 dB     13:29 04-Forbidden Words (feat. Caoilfhionn Rose Birley)
DR10      -0.38 dB   -14.59 dB      7:23 05-Attachment
DR9       -0.39 dB   -11.18 dB      4:53 06-Ophelia's Arrival
DR8       -0.34 dB   -11.17 dB      7:26 07-You Can't Whistle a Haircut
--------------------------------------------------------------------------------

Number of tracks:  7
Official DR value: DR9

Samplerate:        48000 Hz
Channels:          2
Bits per sample:   24
Bitrate:           1710 kbps
Codec:             FLAC
================================================================================
По всем вопросам пишите личное сообщение пользователю M0p94ok.
22:00
261
Нет комментариев. Ваш будет первым!