Вы используете незарегистрированную версию компонента "Вкладки"!

Поиск

1958 Buddy De Franco and The Oscar Peterson Quartet (2021) {Music Manager} [24-48]

1958 Buddy De Franco and The Oscar Peterson Quartet (2021) {Music Manager} [24-48]
Стили:
Дата записи диска:
29 октября - 30 октября 1954
Место записи:
Los Angeles, CA, USA
Носитель:
WEB
Формат:
PCM
Тип рипа:
tracks
Контейнер:
FLAC (*.flac)
Количество каналов:
2.0
Разрядность/ЧД:
24/48
Битрейт аудио:
lossless
Время звучания:
00:43:59
Наличие сканов:
только обложка
Лог проверки качества
foobar2000 1.4.3 / Dynamic Range Meter 1.1.1
log date: 2021-07-13 15:20:22

--------------------------------------------------------------------------------
Analyzed: Buddy De Franco / Buddy De Franco and The Oscar Peterson Quartet
--------------------------------------------------------------------------------

DR         Peak         RMS     Duration Track
--------------------------------------------------------------------------------
DR12      -0.01 dB   -15.07 dB      7:06 01-Sweet and Lovely
DR13      -0.07 dB   -14.42 dB      4:55 02-Fascinatin' Rhythm
DR12      -0.01 dB   -15.78 dB      9:31 03-Love for Sale
DR14      -0.03 dB   -17.06 dB      4:59 04-Easy to Love
DR13      -0.06 dB   -15.19 dB     11:27 05-Pick Yourself Up
DR11      -0.07 dB   -14.38 dB      6:05 06-They Can't Take That Away from Me
--------------------------------------------------------------------------------

Number of tracks:  6
Official DR value: DR13

Samplerate:        48000 Hz
Channels:          2
Bits per sample:   24
Bitrate:           805 kbps
Codec:             FLAC
================================================================================
Any questions - support@pro-jazz.com. Есть вопросы - support@pro-jazz.com
12:54
57
Нет комментариев. Ваш будет первым!