Поиск

2021 Guillaume Tremblay Groupe - Dead End {Effendi} [24-48]

2021 Guillaume Tremblay Groupe - Dead End {Effendi} [24-48]
Стили:
Место записи:
CEM au atelier ToutTout sur la rue Bossé à Chicoutimi
Дата издания диска:
25 июня 2021
Носитель:
WEB
Формат:
PCM
Тип рипа:
tracks
Контейнер:
FLAC (*.flac)
Количество каналов:
2.0
Разрядность/ЧД:
24/48
Битрейт аудио:
lossless
Время звучания:
00:53:47
Наличие сканов:
только обложка

Треклист:

1. Ronflement de fer 07:09
2. Wayne Gretzguy 08:34
3. Dead End 06:24
4. I Shot a Man in Rio Just to Watch Him Die 07:23
5. Kenny le rouleur 13:33
6. Jeux libre 1 02:58
7. Jeux libre 2 07:44

Состав:
  • Guillaume Tremblay: Alto Saxophone
  • Gentiane MG: Fender Rhodes
  • Louis-Vincent Hamel: Batterie
  • Pierre-Olivier Gagnon: Basse
  • Sola Nkani — Voix (sur Dead End)
Лог проверки качества
foobar2000 1.4.2 / Dynamic Range Meter 1.1.1
log date: 2021-07-17 13:49:09

--------------------------------------------------------------------------------
Analyzed: Guillaume Tremblay Groupe / Dead End
--------------------------------------------------------------------------------

DR         Peak         RMS     Duration Track
--------------------------------------------------------------------------------
DR10      -1.05 dB   -13.93 dB      7:09 01-Ronflement de fer
DR11      -1.05 dB   -15.69 dB      8:34 02-Wayne Gretzguy
DR11      -1.29 dB   -14.60 dB      6:24 03-Dead End
DR11      -1.05 dB   -13.61 dB      7:24 04-I Shot a Man in Rio Just to Watch Him Die
DR10      -1.05 dB   -13.24 dB     13:33 05-Kenny le rouleur
DR13      -1.05 dB   -19.33 dB      2:58 06-Jeux, libre 1
DR11      -1.05 dB   -16.81 dB      7:45 07-Jeux, libre 2
--------------------------------------------------------------------------------

Number of tracks:  7
Official DR value: DR11

Samplerate:        48000 Hz
Channels:          2
Bits per sample:   24
Bitrate:           1523 kbps
Codec:             FLAC
================================================================================
По всем вопросам пишите личное сообщение пользователю M0p94ok.
15:06
269
Нет комментариев. Ваш будет первым!