Поиск

2008 Simone - Let's Fall In Love (2015) {Venus VHGD-178} [DSD64 ISO]

2008 Simone - Let's Fall In Love (2015) {Venus VHGD-178} [DSD64 ISO]
Стили:
Дата записи диска:
3 апреля - 4 апреля 2008
Место записи:
Avatar Studios, New York City, NY, USA
Дата издания диска:
16 июля 2008
Дата переиздания диска:
22 июля 2015
Издатель (лейбл):
Номер по каталогу:
VHGD-178
Носитель:
SACD
Формат:
DSD
Тип рипа:
image
Контейнер:
ISO (*.iso)
Количество каналов:
2.0
Разрядность/ЧД:
64 (2,8 MHz/1 Bit)
Битрейт аудио:
lossless
Время звучания:
00:47:29
Наличие сканов:
да

Треклист:

01. Tennessee Waltz  04:10
02. One Day I'll Fly Away  05:44
03. Let's Fall in Love  05:22
04. Ghost in This House  04:08
05. Everybody's Talkin'  04:22
06. I'm Glad There Is You  05:24
07. They Say It's Wonderful  03:31
08. Corcovado  04:40
09. Moon Glow  05:29
10. The Good Life  05:17

Состав:
  • Bass – George Mraz
  • Drums – Victor Lewis
  • Piano – John Di Martino
  • Producer – Tetsuo Hara, Todd Barkan
  • Saxophone – Aaron Heick
  • Tenor Saxophone – Houston Person
  • Vocals – Simone
Лог проверки качества
foobar2000 1.6.4 / Dynamic Range Meter 1.1.1
log date: 2021-07-16 23:05:44

--------------------------------------------------------------------------------
Analyzed: SIMONE / Let's Fall In Love
--------------------------------------------------------------------------------

DR         Peak         RMS     Duration Track
--------------------------------------------------------------------------------
DR6       -5.07 dB   -13.73 dB      4:05 01-Tennessee Waltz
DR6       -5.16 dB   -12.87 dB      5:40 02-One Day I'll Fly Away
DR7       -5.08 dB   -13.91 dB      5:18 03-Let's Fall In Love
DR6       -5.15 dB   -12.74 dB      4:03 04-Ghost In This House
DR7       -4.97 dB   -13.30 dB      4:18 05-Everybody'S Talkin'
DR6       -5.15 dB   -13.52 dB      5:20 06-I'm Glad There Is You
DR7       -5.15 dB   -13.81 dB      3:27 07-They Say It's Wonderful
DR6       -5.04 dB   -13.67 dB      4:36 08-Corcovado
DR6       -4.99 dB   -12.94 dB      5:25 09-Moon Glow
DR7       -5.13 dB   -14.24 dB      5:18 10-The Good Life
--------------------------------------------------------------------------------

Number of tracks:  10
Official DR value: DR6

Samplerate:        2822400 Hz / PCM Samplerate: 88200 Hz
Channels:          2
Bits per sample:   1
Bitrate:           5645 kbps
Codec:             DSD64
================================================================================
По всем вопросам пишите личное сообщение пользователю M0p94ok.
11:28
264
Нет комментариев. Ваш будет первым!