Вы используете незарегистрированную версию компонента "Вкладки"!

Поиск

1993 Pharoah Sanders Quartet - Crescent With Love (2015) {Venus VHGD-96} [DSD64 ISO]

1993 Pharoah Sanders Quartet - Crescent With Love (2015) {Venus VHGD-96} [DSD64 ISO]
Дата записи диска:
19 октября - 20 октября 1992
Место записи:
Sear Sound Studio, New York City, NY, USA
Дата издания диска:
5 апреля 1993
Издатель (лейбл):
Номер по каталогу:
VHGD-96
Носитель:
SACD
Формат:
DSD
Тип рипа:
image
Контейнер:
ISO (*.iso)
Количество каналов:
2.0
Разрядность/ЧД:
64 (2,8 MHz/1 Bit)
Битрейт аудио:
lossless
Время звучания:
01:28:37
Наличие сканов:
да
Лог проверки качества
foobar2000 1.6.4 / Dynamic Range Meter 1.1.1
log date: 2021-07-17 10:19:18

--------------------------------------------------------------------------------
Analyzed: PHAROAH SANDERS QUARTET / Crescent With Love
--------------------------------------------------------------------------------

DR         Peak         RMS     Duration Track
--------------------------------------------------------------------------------
DR9       -3.73 dB   -15.13 dB      7:58 01-Lonnie's Lament
DR9       -5.70 dB   -16.72 dB      5:45 02-Misty
DR9       -4.25 dB   -16.59 dB      6:35 03-In A Sentimental Mood
DR11      -6.23 dB   -21.51 dB      3:45 04-Softly For Shyla
DR9       -4.35 dB   -16.15 dB     13:45 05-Wise One
DR9       -4.91 dB   -16.90 dB      5:58 06-Too Young To Go Steady
DR9       -4.20 dB   -14.57 dB      9:01 07-Body & Soul
DR10      -5.06 dB   -17.21 dB      6:44 08-Naima
DR9       -4.47 dB   -16.36 dB      7:16 09-Feelin' Good
DR9       -4.44 dB   -16.75 dB      6:25 10-Light At The Edge Of The World
DR9       -4.08 dB   -14.76 dB      9:50 11-Crescent
DR10      -6.22 dB   -19.54 dB      5:39 12-After The Rain
--------------------------------------------------------------------------------

Number of tracks:  12
Official DR value: DR9

Samplerate:        2822400 Hz / PCM Samplerate: 88200 Hz
Channels:          2
Bits per sample:   1
Bitrate:           5645 kbps
Codec:             DSD64
================================================================================
Any questions - support@pro-jazz.com. Есть вопросы - support@pro-jazz.com
23:14
64
Нет комментариев. Ваш будет первым!