Поиск

2004 Simone - Moonlight Serenade (2015) {Venus VHGD-101} [DSD64 ISO]

2004 Simone - Moonlight Serenade (2015) {Venus VHGD-101} [DSD64 ISO]
Стили:
Дата записи диска:
19 июля - 20 июля 2003
Место записи:
Avatar Studios, New York City, NY, USA
Дата издания диска:
20 июля 2004
Издатель (лейбл):
Номер по каталогу:
VHGD-101
Носитель:
SACD
Формат:
DSD
Тип рипа:
image
Контейнер:
ISO (*.iso)
Количество каналов:
2.0
Разрядность/ЧД:
64 (2,8 MHz/1 Bit)
Битрейт аудио:
lossless
Время звучания:
01:10:20
Наличие сканов:
да

Треклист:

01. Tea for Two  05:55
02. Fragile  04:55
03. L-O-V-E  03:43
04. For No One  03:47
05. Save Your Love for Me  05:08
06. I've Grown Accustomed to His Face  06:05
07. I'm Through with Love  04:04
08. Autumn Leaves  04:19
09. What a Diff'rence a Day Made  04:19
10. The Nearness of You  05:31
11. Besame Mucho  05:08
12. Like Someone in Love  04:12
13. Peace  04:23
14. Moonlight Serenade  06:07
15. Stompin' at the Savoy  03:26

Состав:

 

  • Simone — vocal
  • John Di Martino — piano
  • Hans Glawischnig — bass
  • Philipp Kopmajer – drums
Лог проверки качества
foobar2000 1.6.4 / Dynamic Range Meter 1.1.1
log date: 2021-07-16 23:10:31

--------------------------------------------------------------------------------
Analyzed: SIMONE / Moonlight Serenade
--------------------------------------------------------------------------------

DR         Peak         RMS     Duration Track
--------------------------------------------------------------------------------
DR8       -4.78 dB   -16.41 dB      5:53 01-Tea For Two
DR9       -4.44 dB   -16.10 dB      4:51 02-Fragile
DR8       -4.13 dB   -14.25 dB      3:40 03-L-O-V-E
DR8       -4.13 dB   -15.12 dB      3:44 04-For No One
DR9       -4.88 dB   -17.02 dB      5:05 05-Save Your Love For Me
DR9       -4.70 dB   -16.60 dB      6:02 06-I've Grown Accustomed To His Face
DR8       -4.39 dB   -14.57 dB      4:01 07-I'm Through With Love
DR7       -4.34 dB   -14.20 dB      4:16 08-Autumn Leaves
DR7       -4.50 dB   -13.14 dB      4:16 09-What A Diff'rence A Day Made
DR9       -4.56 dB   -16.57 dB      5:28 10-The Nearness Of You
DR8       -4.16 dB   -13.89 dB      5:05 11-Besame Mucho
DR8       -4.71 dB   -15.24 dB      4:09 12-Like Someone In Love
DR8       -5.65 dB   -17.66 dB      4:20 13-Peace
DR7       -4.20 dB   -13.68 dB      6:04 14-Moonlight Serenade
DR8       -4.11 dB   -13.74 dB      3:27 15-Stompin' At The Savoy
--------------------------------------------------------------------------------

Number of tracks:  15
Official DR value: DR8

Samplerate:        2822400 Hz / PCM Samplerate: 88200 Hz
Channels:          2
Bits per sample:   1
Bitrate:           5645 kbps
Codec:             DSD64
================================================================================
По всем вопросам пишите личное сообщение пользователю M0p94ok.
15:20
297
Нет комментариев. Ваш будет первым!