Поиск

1997 Steve Kuhn Trio - Sing Me Softly Of The Blues (2017) {Venus VHGD-246} [DSD64 ISO]

1997 Steve Kuhn Trio - Sing Me Softly Of The Blues (2017) {Venus VHGD-246} [DSD64 ISO]
Стили:
Дата записи диска:
14 сентября 1997
Место записи:
Clinton Studio "A", New York City, NY, USA
Дата издания диска:
26 декабря 1997
Издатель (лейбл):
Номер по каталогу:
VHGD-246
Носитель:
SACD
Формат:
DSD
Тип рипа:
image
Контейнер:
ISO (*.iso)
Количество каналов:
2.0
Разрядность/ЧД:
64 (2,8 MHz/1 Bit)
Битрейт аудио:
lossless
Время звучания:
00:56:05
Наличие сканов:
да
Треклист:

01. This Is New 7:28
02. Dance Only With Me 5:22
03. Chicken Feathers 4:56
04. My Funny Valentine 5:59
05. Sing Me Softly Of The Blues 5:47
06. Naima 4:21
07. Sticky Kisses 4:19
08. Who Cares? 4:38
09. Lament 5:28
10. The Very Thought Of You 7:09

Состав:
  • Double Bass – George Mraz
  • Drums – Pete LaRoca Sims
  • Engineer – David Baker
  • Engineer [Assistant] – Ken Ross (2)
  • Mastered By – Shuji Kitamura
  • Piano – Steve Kuhn
  • Producer – Tetsuo Hara, Todd Barkan
Лог проверки качества
foobar2000 1.6.4 / Dynamic Range Meter 1.1.1
log date: 2021-07-16 22:12:50

--------------------------------------------------------------------------------
Analyzed: STEVE KUHN TRIO / Sing Me Softly Of The Blues
--------------------------------------------------------------------------------

DR         Peak         RMS     Duration Track
--------------------------------------------------------------------------------
DR11      -4.45 dB   -17.86 dB      7:36 01-This Is New
DR11      -4.74 dB   -19.08 dB      5:29 02-Dance Only With Me
DR10      -4.26 dB   -16.98 dB      5:02 03-Chicken Feathers
DR11      -4.92 dB   -20.28 dB      6:08 04-My Funny Valentine
DR11      -4.80 dB   -18.64 dB      5:29 05-Sing Me Softly Of The Blues
DR12      -4.93 dB   -21.29 dB      4:27 06-Naima
DR10      -4.63 dB   -18.04 dB      4:25 07-Sticky Kisses
DR10      -4.54 dB   -16.70 dB      4:45 08-Who Cares?
DR13      -4.89 dB   -21.75 dB      5:35 09-Lament
DR12      -4.64 dB   -19.70 dB      7:10 10-The Very Thought Of You
--------------------------------------------------------------------------------

Number of tracks:  10
Official DR value: DR11

Samplerate:        2822400 Hz / PCM Samplerate: 88200 Hz
Channels:          2
Bits per sample:   1
Bitrate:           5645 kbps
Codec:             DSD64
================================================================================
По всем вопросам пишите личное сообщение пользователю M0p94ok.
20:35
256
Нет комментариев. Ваш будет первым!