Поиск

2010 Steve Kuhn Trio - I Will Wait For You (2014) {Venus VHGD-27} [DSD64 ISO]

2010 Steve Kuhn Trio - I Will Wait For You (2014) {Venus VHGD-27} [DSD64 ISO]
Стили:
Дата записи диска:
24 февраля - 25 февраля 2010
Место записи:
Avatar Studios, New York City, NY, USA
Дата издания диска:
21 декабря 2010
Издатель (лейбл):
Номер по каталогу:
VHGD-27
Носитель:
SACD
Формат:
DSD
Тип рипа:
image
Контейнер:
ISO (*.iso)
Количество каналов:
2.0
Разрядность/ЧД:
64 (2,8 MHz/1 Bit)
Битрейт аудио:
lossless
Время звучания:
01:07:30
Наличие сканов:
только обложка

Треклист:

01. I Will Wait For You    5:40
02. What Are You Doing The Rest Of Your Life    6:59
03. Watch What Happens    6:26
04. How Do You Keep The Music Playing    7:08
05. Summer Me, Winter Me    8:08
06. Once Upon A Summertime    6:49
07. Brian's Song    7:06
08. You Must Believe In Spring    5:20
09. The Summer Knows    7:35
10. I Will Wait For You - Represe    5:46

Состав:
  • Double Bass – George Mraz
  • Drums – Billy Drummond
  • Piano – Steve Kuhn
Лог проверки качества
foobar2000 1.6.4 / Dynamic Range Meter 1.1.1
log date: 2021-07-16 22:17:26

--------------------------------------------------------------------------------
Analyzed: STEVE KUHN TRIO / I WILL WAIT FOR YOU
--------------------------------------------------------------------------------

DR         Peak         RMS     Duration Track
--------------------------------------------------------------------------------
DR6       -4.50 dB   -12.93 dB      5:42 01-I Will Wait For You
DR7       -6.14 dB   -14.91 dB      7:02 02-What Are You Doing The Rest Of Your Life
DR7       -4.71 dB   -12.86 dB      6:30 03-Watch What Happens
DR7       -5.61 dB   -14.19 dB      7:10 04-How Do You Keep The Music Playing
DR6       -5.43 dB   -13.22 dB      8:10 05-Summer Me,Winter Me
DR6       -6.11 dB   -14.12 dB      6:53 06-Once Upon A Summertime
DR7       -4.58 dB   -13.65 dB      7:10 07-Brian's Song
DR6       -6.02 dB   -13.87 dB      5:24 08-You Must Believe In Spring
DR7       -5.24 dB   -13.50 dB      7:38 09-The Summer Knows
DR7       -5.10 dB   -13.40 dB      5:51 10-I Will Wait For You - Represe
--------------------------------------------------------------------------------

Number of tracks:  10
Official DR value: DR7

Samplerate:        2822400 Hz / PCM Samplerate: 88200 Hz
Channels:          2
Bits per sample:   1
Bitrate:           5645 kbps
Codec:             DSD64
================================================================================
По всем вопросам пишите личное сообщение пользователю M0p94ok.
12:02
282
Нет комментариев. Ваш будет первым!