Вы используете незарегистрированную версию компонента "Вкладки"!

Поиск

1974 Herbie Hancock - Dedication (2008) {Columbia} [24-96]

1974 Herbie Hancock - Dedication (2008) {Columbia} [24-96]
Стили:
Дата записи диска:
29 июля 1974
Место записи:
Koseinenkin Hall, Tokyo, Japan
Издатель (лейбл):
Носитель:
WEB
Формат:
PCM
Тип рипа:
tracks
Контейнер:
FLAC (*.flac)
Количество каналов:
2.0
Разрядность/ЧД:
24/96
Битрейт аудио:
lossless
Время звучания:
00:40:30
Наличие сканов:
только обложка
Лог проверки качества
foobar2000 1.4.3 / Dynamic Range Meter 1.1.1
log date: 2021-07-08 17:23:59

--------------------------------------------------------------------------------
Analyzed: Herbie Hancock / Dedication
--------------------------------------------------------------------------------

DR         Peak         RMS     Duration Track
--------------------------------------------------------------------------------
DR14      -2.65 dB   -22.06 dB      7:44 01-Maiden Voyage (Album Version)
DR14      -0.74 dB   -20.76 dB     11:17 02-Dolphin Dance
DR12      -2.35 dB   -18.08 dB      7:38 03-Nobu
DR15      -0.17 dB   -18.88 dB     13:56 04-Cantaloupe Island
--------------------------------------------------------------------------------

Number of tracks:  4
Official DR value: DR14

Samplerate:        96000 Hz
Channels:          2
Bits per sample:   24
Bitrate:           2705 kbps
Codec:             FLAC
================================================================================
Any questions - support@pro-jazz.com. Есть вопросы - support@pro-jazz.com
11:54
58
Нет комментариев. Ваш будет первым!