Поиск

2021 JD Allen - Queen City {Savant} [24-48]

2021 JD Allen - Queen City {Savant} [24-48]
Стили:
Дата издания диска:
9 июля 2021
Издатель (лейбл):
Носитель:
WEB
Формат:
PCM
Тип рипа:
tracks
Контейнер:
FLAC (*.flac)
Количество каналов:
2.0
Разрядность/ЧД:
24/48
Битрейт аудио:
lossless
Время звучания:
00:40:10
Наличие сканов:
только обложка

Треклист:

01 - Three Little Words (02:56)
02 - Wildwood Flower (04:39)
03 - Maude (02:04)
04 - O.T.R. (02:58)
05 - Retrograde (02:41)
06 - Gem and Eye (02:43)
07 - Mother (02:01)
08 - Queen City (03:51)
09 - Vernetta (02:29)
10 - Kristian with a K (03:56)
11 - Nyla's Sky (02:47)
12 - Just a Gigolo (03:18)
13 - These Foolish Things (03:40)

Лог проверки качества
foobar2000 1.4.2 / Dynamic Range Meter 1.1.1
log date: 2021-07-16 09:19:29

--------------------------------------------------------------------------------
Analyzed: JD Allen / Queen City
--------------------------------------------------------------------------------

DR         Peak         RMS     Duration Track
--------------------------------------------------------------------------------
DR11      -0.40 dB   -12.52 dB      2:56 01-Three Little Words
DR9       -1.34 dB   -12.99 dB      4:40 02-Wildwood Flower
DR11      -0.27 dB   -14.74 dB      2:05 03-Maude
DR10      -0.28 dB   -12.53 dB      2:59 04-O.T.R.
DR10      -0.52 dB   -12.34 dB      2:42 05-Retrograde
DR10      -0.35 dB   -12.82 dB      2:44 06-Gem and Eye
DR9       -0.35 dB   -13.49 dB      2:01 07-Mother
DR10      -0.42 dB   -12.29 dB      3:52 08-Queen City
DR10      -0.69 dB   -13.27 dB      2:30 09-Vernetta
DR10      -0.61 dB   -12.62 dB      3:56 10-Kristian with a K
DR10      -0.70 dB   -13.14 dB      2:48 11-Nyla's Sky
DR11      -0.42 dB   -13.20 dB      3:18 12-Just a Gigolo
DR10      -0.29 dB   -12.40 dB      3:41 13-These Foolish Things
--------------------------------------------------------------------------------

Number of tracks:  13
Official DR value: DR10

Samplerate:        48000 Hz
Channels:          2
Bits per sample:   24
Bitrate:           1501 kbps
Codec:             FLAC
================================================================================
По всем вопросам пишите личное сообщение пользователю M0p94ok.
23:22
284
Нет комментариев. Ваш будет первым!