Поиск

2021 Lex Jasper Trio - Lexposure {Challenge} [24-96]

2021 Lex Jasper Trio - Lexposure {Challenge} [24-96]
Дата издания диска:
5 февраля 2021
Издатель (лейбл):
Битрейт аудио:
lossless
Лог проверки качества
foobar2000 1.4.8 / Dynamic Range Meter 1.1.1
log date: 2021-02-05 22:17:24

--------------------------------------------------------------------------------
Analyzed: Lex Jasper Trio / Lexposure
--------------------------------------------------------------------------------

DR         Peak         RMS     Duration Track
--------------------------------------------------------------------------------
DR10      -1.17 dB   -12.86 dB      4:05 01-Belle Époque
DR13      -0.17 dB   -17.01 dB      6:39 02-As the Decade Passed
DR12      -1.17 dB   -15.12 dB      3:48 03-Mysterious Lady Walks in the Night
DR10      -2.06 dB   -13.79 dB      3:03 04-Vince & Frans
DR13      -0.59 dB   -18.42 dB      4:41 05-I Remeber Eric Timmermans
DR12      -0.67 dB   -15.11 dB      3:46 06-I Will Be Like It Used to Be
DR11      -0.67 dB   -13.32 dB      2:13 07-Pedelex
DR12      -0.19 dB   -15.88 dB      4:53 08-Eccentric and Reclusive
DR13       0.00 dB   -15.68 dB      5:07 09-The Coming Years
DR12      -1.17 dB   -14.40 dB      3:53 10-Prosperous and Pleasant
DR10      -2.06 dB   -14.38 dB      3:43 11-Parisian Streetcapes
DR12      -0.16 dB   -14.47 dB      4:58 12-Happier Moments
DR12      -1.17 dB   -14.31 dB      2:52 13-Mellow Treatment
DR10      -1.17 dB   -14.09 dB      4:29 14-I Wish I Had Known You Sanny
DR11      -1.25 dB   -16.60 dB      2:47 15-Thanks Marinus
--------------------------------------------------------------------------------

Number of tracks:  15
Official DR value: DR12
Samplerate:        96000 Hz
Channels:          2
Bits per sample:   24
Bitrate:           2408 kbps
Codec:             FLAC
================================================================================
No seeders - write personal message to M0p94ok. Any questions - support@pro-jazz.com.
Нет сидеров - пишите в личку M0p94ok. Есть вопросы - support@pro-jazz.com
02:20
142
Нет комментариев. Ваш будет первым!