Поиск

2018 VA - Venus The Amazing Super Audio CD Sampler Vol.22 {Venus} [DSD64]

2018 VA - Venus The Amazing Super Audio CD Sampler Vol.22 {Venus} [DSD64]
Издатель (лейбл):
Номер по каталогу:
VHGD-277
Битрейт аудио:
lossless
Доп. инфо:

Формат записи/Источник записи: [SACD-R][OF]
Наличие водяных знаков: Нет
Издание: Sampler
Год издания диска: 2018
Продолжительность: 01:32:40
Наличие сканов в содержимом раздачи: Только обложка альбома

Контейнер: ISO (*.iso)
Тип рипа: image
Разрядность: 64(2,8 MHz/1 Bit)
Формат: DSD
Количество каналов: 2.0

Источник: venusrecords

Лог проверки качества
foobar2000 1.6.4 / Замер динамического диапазона (DR) 1.1.1
Дата отчёта:  2021-02-05 21:45:03

--------------------------------------------------------------------------------
Анализ:   Various Artists / VENUS THE AMAZING SUPER AUDIO CD SAMPLER VOL.22
--------------------------------------------------------------------------------

DR         Пики         RMS           Продолжительность трека
--------------------------------------------------------------------------------
DR10      -5.55 дБ   -19.01 дБ      4:15 01-Self Portrait In Three Colors
DR7       -4.42 дБ   -12.80 дБ      6:52 02-What's Going On?
DR8       -4.64 дБ   -14.81 дБ      7:58 03-Wholly Cats
DR5       -4.75 дБ   -12.11 дБ      7:04 04-The Lady From Aragon
DR5       -4.77 дБ   -11.46 дБ      6:33 05-It Might As Well Be Spring
DR7       -4.87 дБ   -15.14 дБ      4:54 06-Wild Is The Wind
DR7       -5.25 дБ   -13.28 дБ      3:57 07-La Comparsa
DR11      -4.81 дБ   -18.42 дБ      7:05 08-Song For My Father
DR7       -4.67 дБ   -12.85 дБ      6:20 09-Woodin' You
DR7       -4.76 дБ   -13.83 дБ      6:46 10-Yeaterdays
DR6       -4.78 дБ   -12.05 дБ      5:50 11-Chateau En Suede
DR10      -4.89 дБ   -17.47 дБ      6:56 12-Close Enough For Love
DR7       -4.63 дБ   -13.55 дБ      6:22 13-My Favorite Things
DR7       -4.77 дБ   -14.06 дБ      4:59 14-When Your Lover Has Gone
DR9       -4.31 дБ   -16.87 дБ      6:49 15-Everything Happens To Me
--------------------------------------------------------------------------------

Количество треков: 15
Реальные значения DR: DR8

Частота:  2822400 Гц / Частота PCM: 352800 Гц
Каналов:  2
Разрядность:   1
Битрейт:  5645 кбит/с
Кодек:   DSD64
================================================================================
No seeders - write personal message to M0p94ok. Any questions - support@pro-jazz.com.
Нет сидеров - пишите в личку M0p94ok. Есть вопросы - support@pro-jazz.com
13:30
153
Нет комментариев. Ваш будет первым!