Поиск

2015 Leeway Vincent Payen - Find My Way {Musicast} [24-44.1]

2015 Leeway Vincent Payen - Find My Way {Musicast} [24-44.1]
Дата издания диска:
20 ноября 2015
Номер по каталогу:
3 700187 661335
Носитель:
WEB
Формат:
PCM
Тип рипа:
tracks
Контейнер:
FLAC (*.flac)
Количество каналов:
2.0
Разрядность/ЧД:
24/44,1
Битрейт аудио:
lossless
Время звучания:
00:32:49
Наличие сканов:
только обложка
Наличие водяных знаков:
нет
Страна-производитель диска (релиза):
France
Релизёр (источник):
M0p94ok

Треклист:

01. Find My Way  03:23
02. I Love You  03:59
03. Un nouvel espoir  03:47
04. Street 66 #1  00:36
05. To Lee Morgan  03:49
06. Brighter Day  04:15
07. Street 66 #2  00:33
08. After the Rain  05:11
09. L'eau à la bouche  03:31
10. Station Street  02:56
11. Street 66 #3  00:43

Лог проверки качества
foobar2000 1.3.16 / Dynamic Range Meter 1.1.1
log date: 2019-05-16 15:25:59

--------------------------------------------------------------------------------
Analyzed: Leeway Vincent Payen / Find My Way
--------------------------------------------------------------------------------

DR         Peak         RMS     Duration Track
--------------------------------------------------------------------------------
DR8       -2.45 dB   -12.97 dB      3:23 01-Find My Way
DR10       0.00 dB   -13.53 dB      4:00 02-I Love You
DR10      -0.23 dB   -12.67 dB      3:48 03-Un nouvel espoir
DR13      -1.81 dB   -16.34 dB      0:37 04-Street 66 #1
DR10       0.00 dB   -10.84 dB      3:50 05-To Lee Morgan
DR8       -1.27 dB   -11.85 dB      4:15 06-Brighter Day
DR14      -0.80 dB   -16.71 dB      0:34 07-Street 66 #2
DR8       -1.80 dB   -13.19 dB      5:11 08-After the Rain
DR9       -0.10 dB   -11.35 dB      3:32 09-L'eau à la bouche
DR11      -0.04 dB   -13.60 dB      2:56 10-Station Street
DR14      -0.67 dB   -17.40 dB      0:44 11-Street 66 #3
--------------------------------------------------------------------------------

Number of tracks:  11
Official DR value: DR11

Samplerate:        44100 Hz
Channels:          2
Bits per sample:   24
Bitrate:           1525 kbps
Codec:             FLAC
================================================================================
Приватный:
Нет (DHT включён)
Размер:
365.45 Мб (383,199,476 байт) » файлов: 13
Участники:
3 раздают, 0 качают (3 участников всего)
Внешние участники:
--- [ Обновить ]
No seeders - write personal message to M0p94ok. Нет сидеров - пишите в личку M0p94ok.
16:48
92
Нет комментариев. Ваш будет первым!