Поиск

1982 Timeless Allstars - At Onkel Pö's Carnegie Hall, Hamburg (2019) {JSM} [24-48]

1982 Timeless Allstars - At Onkel Pö's Carnegie Hall, Hamburg (2019) {JSM} [24-48]
Дата записи диска:
5 апреля 1982
Место записи:
Onkel PÖ’s Carnegie Hall, Hamburg, Germany
Номер по каталогу:
Jazzline Studio Masters N 77063
Битрейт аудио:
lossless

Треклист:

01 - Tokudo 19:18
02 - My Foolish Heart 14:38
03 - Clockwise 20:32
04 - Mapenzi 20:52

Доп. инфо:

Формат записи/Источник записи: [TR24][OF]
Издание: Remastered
Год издания/переиздания диска: 2019
Продолжительность: 01:15:20
Наличие сканов в содержимом раздачи: Нет

Контейнер: FLAC (*.flac)
Тип рипа: tracks
Разрядность: 24/48
Количество каналов: 2.0

Источник (релизер): PROSTUDIOMASTERS

Лог проверки качества
foobar2000 1.4.3 / Dynamic Range Meter 1.1.1
log date: 2021-02-05 18:20:14

--------------------------------------------------------------------------------
Analyzed: Timeless Allstars / At Onkel Pö's Carnegie Hall, Hamburg 1982 (Live)
--------------------------------------------------------------------------------

DR         Peak         RMS     Duration Track
--------------------------------------------------------------------------------
DR11      -1.10 dB   -14.00 dB     19:19 01-Tokudo (Live)
DR14      -1.10 dB   -19.76 dB     14:39 02-My Foolish Heart (Live)
DR14      -1.10 dB   -17.93 dB     20:33 03-Clockwise (Live)
DR12      -1.10 dB   -15.67 dB     20:53 04-Mapenzi (Live)
--------------------------------------------------------------------------------

Number of tracks:  4
Official DR value: DR13

Samplerate:        48000 Hz
Channels:          2
Bits per sample:   24
Bitrate:           1694 kbps
Codec:             FLAC
================================================================================
Приватный:
Нет (DHT включён)
Размер:
882.77 Мб (925,653,844 байт) » файлов: 9
Участники:
0 раздают, 0 качают (0 участников всего)
Внешние участники:
5 раздают, 2 качают (7 участников всего) [ Обновить ]
No seeders - write personal message to M0p94ok. Any questions - support@pro-jazz.com.
Нет сидеров - пишите в личку M0p94ok. Есть вопросы - support@pro-jazz.com
18:38
84
Нет комментариев. Ваш будет первым!