Поиск

2019 Magic Malik - Jazz Association {Jazz & People} [24-44.1]

2019 Magic Malik - Jazz Association {Jazz & People} [24-44.1]
Дата издания диска:
24 мая 2019
Номер по каталогу:
JPLP819005
Носитель:
WEB
Формат:
PCM
Тип рипа:
tracks
Контейнер:
FLAC (*.flac)
Количество каналов:
2.0
Разрядность/ЧД:
24/44,1
Битрейт аудио:
lossless
Время звучания:
00:44:47
Наличие сканов:
только обложка
Страна-производитель диска (релиза):
France
Релизёр (источник):
M0p94ok
Лог проверки качества
foobar2000 1.3.16 / Dynamic Range Meter 1.1.1
log date: 2019-05-24 01:39:37

--------------------------------------------------------------------------------
Analyzed: Magic Malik feat. Damien Varaillon / Jazz Association (1)
          Magic Malik feat. Olivier Laisney & Maxime Sanchez & Damien Varaillon & Stefano Lucchini / Jazz Association (2-10)
--------------------------------------------------------------------------------

DR         Peak         RMS     Duration Track
--------------------------------------------------------------------------------
DR11      -6.08 dB   -20.18 dB      2:05 06-In Walked Bud
DR12      -0.32 dB   -14.93 dB      4:15 01-Strode Rode
DR14      -0.32 dB   -17.56 dB      5:52 02-Fee-Fi-Fo-Fum
DR12      -0.32 dB   -15.11 dB      6:53 03-Straight Street
DR12      -0.32 dB   -14.75 dB      1:51 04-Daahoud
DR13      -2.57 dB   -21.16 dB      3:33 05-My Ship
DR13      -0.32 dB   -14.89 dB      3:52 07-Joy Spring
DR15      -0.33 dB   -19.34 dB      2:11 08-Yes Or No
DR13      -0.32 dB   -14.95 dB      6:52 09-Lelola
DR14      -0.32 dB   -17.95 dB      7:27 10-You Are Too Beautiful
--------------------------------------------------------------------------------

Number of tracks:  10
Official DR value: DR13

Samplerate:        44100 Hz
Channels:          2
Bits per sample:   24
Bitrate:           1474 kbps
Codec:             FLAC
================================================================================
No seeders - write personal message to M0p94ok. Any questions - support@pro-jazz.com.
Нет сидеров - пишите в личку M0p94ok. Есть вопросы - support@pro-jazz.com
19:29
121
Нет комментариев. Ваш будет первым!