Поиск

2019 Kava - Material {Vitamine Source} [24-44.1]

2019 Kava - Material {Vitamine Source} [24-44.1]
Стили:
Дата издания диска:
14 мая 2019
Номер по каталогу:
VS003
Носитель:
WEB
Формат:
PCM
Тип рипа:
tracks
Контейнер:
FLAC (*.flac)
Количество каналов:
2.0
Разрядность/ЧД:
24/44,1
Битрейт аудио:
lossless
Время звучания:
00:43:41
Наличие сканов:
только обложка
Релизёр (источник):
M0p94ok
Лог проверки качества
foobar2000 1.3.16 / Dynamic Range Meter 1.1.1
log date: 2019-05-16 15:25:51

--------------------------------------------------------------------------------
Analyzed: Kava / Material
--------------------------------------------------------------------------------

DR         Peak         RMS     Duration Track
--------------------------------------------------------------------------------
DR10      -0.32 dB   -13.27 dB     12:42 01-Three Planets
DR12      -0.32 dB   -16.68 dB      7:12 02-Re: Aelia Laelia
DR12      -0.32 dB   -13.74 dB      4:31 03-Smallsong
DR13      -0.32 dB   -15.33 dB      5:15 04-7Up
DR13      -0.42 dB   -16.31 dB      7:14 05-Talos IV
DR10      -0.32 dB   -12.82 dB      6:51 06-Owls Dance
--------------------------------------------------------------------------------

Number of tracks:  6
Official DR value: DR12

Samplerate:        44100 Hz
Channels:          2
Bits per sample:   24
Bitrate:           1602 kbps
Codec:             FLAC
================================================================================
No seeders - write personal message to M0p94ok. Any questions - support@pro-jazz.com.
Нет сидеров - пишите в личку M0p94ok. Есть вопросы - support@pro-jazz.com
00:39
124
Нет комментариев. Ваш будет первым!