Поиск

2021 Christine Salem - Mersi {Blue Fanal} [24-44.1]

2021 Christine Salem - Mersi {Blue Fanal} [24-44.1]
Стили:
Битрейт аудио:
lossless

Треклист:

01. Anou (3:24)
02. Gèryé (3:47)
03. Izaé (5:10)
04. Tyinbo (3:15)
05. Yala (3:56)
06. Lasa (3:57)
07. Je dis non (4:00)
08. Dolo (4:46)
09. Why War (3:03)
10. Mangavo (3:58)
11. Mama Africa (3:24)
12. Laye Layé (3:21)
13. Mersi (4:52)

Доп. инфо:

Формат записи/Источник записи: [TR24][OF]
Наличие водяных знаков: Нет
Год издания/переиздания диска: 2021
Издатель (лейбл): Blue Fanal
Продолжительность: 00:50:50
Наличие сканов в содержимом раздачи: Буклет PDF
Источник (релизер): qobuz

Контейнер: FLAC (*.flac)
Тип рипа: tracks
Разрядность: 24/44,1
Формат: PCM
Количество каналов: 2.0

Лог проверки качества
foobar2000 1.1.15 / Dynamic Range Meter 1.1.1
log date: 2021-02-05 13:29:33

--------------------------------------------------------------------------------
Analyzed: Christine Salem / Mersi
--------------------------------------------------------------------------------

DR         Peak         RMS     Duration Track
--------------------------------------------------------------------------------
DR6       -0.13 dB    -8.36 dB      3:24 01-Anou
DR7       -0.13 dB    -8.56 dB      3:47 02-Gèryé
DR7       -0.13 dB    -8.06 dB      5:10 03-Izaé
DR7       -0.13 dB    -8.88 dB      3:15 04-Tyinbo
DR7       -0.13 dB    -8.48 dB      3:56 05-Yala
DR7       -0.13 dB    -9.95 dB      3:57 06-Lasa
DR8       -0.13 dB    -9.55 dB      4:00 07-Je dis non
DR6       -0.13 dB    -8.39 dB      4:46 08-Dolo
DR7       -0.13 dB    -8.87 dB      3:03 09-Why War
DR6       -0.13 dB    -7.18 dB      3:58 10-Mangavo
DR6       -0.13 dB    -9.00 dB      3:24 11-Mama Africa
DR6       -0.13 dB    -8.29 dB      3:21 12-Laye Layé
DR13      -0.22 dB   -17.20 dB      4:52 13-Mersi
--------------------------------------------------------------------------------

Number of tracks:  13
Official DR value: DR7

Samplerate:        44100 Hz
Channels:          2
Bits per sample:   24
Bitrate:           1248 kbps
Codec:             FLAC
================================================================================
Приватный:
Нет (DHT включён)
Размер:
570.01 Мб (597,700,164 байт) » файлов: 18
Участники:
0 раздают, 0 качают (0 участников всего)
Внешние участники:
--- [ Обновить ]
No seeders - write personal message to M0p94ok. Нет сидеров - пишите в личку M0p94ok.
23:54
91
Нет комментариев. Ваш будет первым!