Поиск

2020 Georgia Gibbs - It's Her Nibs! Miss Georgia Gibbs! {RevOla} [24-44.1]

2020 Georgia Gibbs - It's Her Nibs! Miss Georgia Gibbs! {RevOla} [24-44.1]
Стили:
Издатель (лейбл):
Битрейт аудио:
lossless
Доп. инфо:

Формат записи/Источник записи: [TR24][OF]
Издание: Remastered
Год издания/переиздания диска: 2020
Продолжительность: 01:04:54
Наличие сканов в содержимом раздачи: Нет

Контейнер: FLAC (*.flac)
Тип рипа: tracks
Разрядность: 24/44,1
Количество каналов: 2.0

Источник (релизер): Qobuz

Лог проверки качества
foobar2000 1.6.2 / Dynamic Range Meter 1.1.1
log date: 2020-12-19 17:35:23

--------------------------------------------------------------------------------
Analyzed: Georgia Gibbs / It's Her Nibs! Miss Georgia Gibbs!
--------------------------------------------------------------------------------

DR         Peak         RMS     Duration Track
--------------------------------------------------------------------------------
DR9       -4.07 dB   -15.17 dB      2:27 01-Kiss Of Fire (Remastered)
DR10      -2.31 dB   -15.59 dB      2:27 02-Tom's Tune (Remastered)
DR9       -4.15 dB   -15.44 dB      2:59 03-While You Danced, Danced, Danced (Remastered)
DR11      -0.64 dB   -15.60 dB      2:51 04-Cry (Remastered)
DR10      -0.90 dB   -16.13 dB      2:25 05-So Madly In Love (Remastered)
DR8       -3.88 dB   -13.92 dB      2:38 06-My Favorite Song (Remastered)
DR10      -2.61 dB   -15.06 dB      2:09 07-Seven Lonely Days (Remastered)
DR8       -5.50 dB   -16.41 dB      2:29 08-For Me, For Me (Remastered)
DR9       -4.40 dB   -16.65 dB      2:43 09-The Bridge Of Sighs (Remastered)
DR11      -2.30 dB   -15.83 dB      2:59 10-Home Lovin' Man (Remastered)
DR9       -1.96 dB   -15.79 dB      2:31 11-I Love Paris (Remastered)
DR9       -3.64 dB   -16.79 dB      2:48 12-Autumn Leaves (Remastered)
DR12      -1.63 dB   -16.20 dB      2:22 13-Somebody Bad Stole De Wedding Bell (Remastered)
DR10      -1.60 dB   -16.14 dB      2:05 14-My Sin (Remastered)
DR10      -1.66 dB   -16.25 dB      2:59 15-How Did He Look? (Remastered)
DR10      -2.93 dB   -14.95 dB      1:55 16-Wait For Me Darling (Remastered)
DR10      -0.42 dB   -15.01 dB      4:12 17-It's The Talk Of The Town! (Remastered)
DR10      -2.59 dB   -15.23 dB      2:31 18-Tweedle Dee (Remastered)
DR11      -2.45 dB   -14.60 dB      2:18 19-Dance With Me Henry (Remastered)
DR10      -4.31 dB   -15.95 dB      2:30 20-Sweet And Gentle (Remastered)
DR10      -4.27 dB   -16.04 dB      2:29 21-I Want You To Be My Baby (Remastered)
DR7       -5.05 dB   -14.29 dB      2:48 22-Goodbye To Rome (Arrivederci Roma) (Remastered)
DR11      -2.67 dB   -16.03 dB      2:16 23-Kiss Me Another (Remastered)
DR10      -3.78 dB   -17.81 dB      2:46 24-Happiness Is A Thing Called Joe (Remastered)
DR10      -2.64 dB   -16.08 dB      2:35 25-Happiness Street (Remastered)
--------------------------------------------------------------------------------

Number of tracks:  25
Official DR value: DR10

Samplerate:        44100 Hz
Channels:          2
Bits per sample:   24
Bitrate:           1183 kbps
Codec:             FLAC
================================================================================
No seeders - write personal message to M0p94ok. Any questions - support@pro-jazz.com.
Нет сидеров - пишите в личку M0p94ok. Есть вопросы - support@pro-jazz.com
22:59
155
Нет комментариев. Ваш будет первым!