Поиск

2018 VA - Venus Best of Best: For Jazzaudio Connoisseur {Venus} [DSD64]

2018 VA - Venus Best of Best: For Jazzaudio Connoisseur {Venus} [DSD64]
Издатель (лейбл):
Номер по каталогу:
VHGD-304
Битрейт аудио:
lossless
Треклист:

01. Blues In The Night - New York Trio《 H. Arlen 》
02. Under Paris Skies - Nicki Parrott《 J. Andre, K. Gannon, H. Giraud 》
03. Blue Moon - Nicki Parrott & Ken Peplowski《 L. Hart - R. Rodgers 》
04. Cry Me A River - Archie Shepp Quartet《 A. Hamilton 》
05. Girl Talk - Joe Beck Trio《 N. Hefti 》
06. Nardis - Richie Beirach Trio《 M. Davis 》
07. Lullaby Of The Leaves - Nicolas Montier And Saxomania《 B. Petkere 》
08. Delilah - Brian Lynch Afro Cuban Jazz Orchestra《 V. Young 》
09. Gnid - Enrico Rava《 T. Dameron 》
10. All The Things You Are - Masahiko Togashi & J.J.Spirits《 J. Kern 》

Доп. инфо:

Формат записи/Источник записи: [SACD-R][OF]
Наличие водяных знаков: Нет
Год издания диска: 2018
Продолжительность: 01:13:27
Наличие сканов в содержимом раздачи: Да (сканы)

Контейнер: ISO (*.iso)
Тип рипа: image
Разрядность: 64(2,8 MHz/1 Bit)
Формат: DSD
Количество каналов: 2.0

Источник (релизер): venusrecords

Лог проверки качества
foobar2000 1.6.4 / Замер динамического диапазона (DR) 1.1.1
Дата отчёта:  2021-02-04 21:12:35

--------------------------------------------------------------------------------
Анализ:   Various Artists / VENUS BEST OF BEST
--------------------------------------------------------------------------------

DR         Пики         RMS           Продолжительность трека
--------------------------------------------------------------------------------
DR7       -4.95 дБ   -15.47 дБ      8:29 01-Blues In The Night
DR6       -4.81 дБ   -11.86 дБ      4:07 02-Under Paris Skies
DR4       -4.96 дБ   -10.49 дБ      5:44 03-Blue Moon
DR9       -4.79 дБ   -16.03 дБ      7:55 04-Cry Me A River
DR7       -4.86 дБ   -13.33 дБ      7:17 05-Girl Talk
DR7       -5.27 дБ   -14.92 дБ      7:26 06-Nardis
DR9       -3.94 дБ   -14.57 дБ      4:10 07-Lullaby Of The Leaves
DR9       -4.52 дБ   -14.32 дБ      9:43 08-Delilah
DR6       -4.96 дБ   -12.41 дБ      7:07 09-Gnid
DR7       -3.91 дБ   -13.34 дБ     11:31 10-All The Things You Are
--------------------------------------------------------------------------------

Количество треков: 10
Реальные значения DR: DR7

Частота:  2822400 Гц / Частота PCM: 352800 Гц
Каналов:  2
Разрядность:   1
Битрейт:  5645 кбит/с
Кодек:   DSD64
================================================================================
Приватный:
Нет (DHT включён)
Размер:
2.94 Гб (3,161,415,350 байт) » файлов: 5
Участники:
1 раздают, 0 качают (1 участников всего)
Внешние участники:
9 раздают, 3 качают (12 участников всего) [ Обновить ]
Скорость:
0/c 459.12 Кб/c
No seeders - write personal message to M0p94ok. Нет сидеров - пишите в личку M0p94ok.
19:31
112
Нет комментариев. Ваш будет первым!