Поиск

1997 Paolo Fresu Quintet feat. Erwin Vann - ReWanderlust (2020) {Tuk Music} [24-44.1]

1997 Paolo Fresu Quintet feat. Erwin Vann - ReWanderlust (2020) {Tuk Music} [24-44.1]
Стили:
Битрейт аудио:
lossless

Треклист:

01. Trunca e peltunta  05:56
02. Favole  08:14
03. Wanderlust  04:31
04. Geremeas  04:00
05. Variazione quattro  02:04
06. Children of 10000 Years  07:07
07. Appuntamento sul treno  05:24
08. Soul Eyes  05:40
09. Seven Up  03:38
10. Hush!  05:11
11. In quelle sere d'autunno  04:10
12. Simplicity  05:36
13. Touch Her Soft Lips and Part  03:17

Доп. инфо:

Формат записи/Источник записи: [TR24][OF]
Наличие водяных знаков: Нет
Издание: Reissue
Год издания/переиздания диска: 1997/2020
Издатель (лейбл): Tuk Music
Продолжительность: 1:04:55

Контейнер: FLAC (*.flac)
Тип рипа: tracks
Разрядность: 24/44,1
Формат: PCM
Количество каналов: 2.0

Источник (релизер): 7digital

Лог проверки качества
foobar2000 1.5.3 beta 6 / Dynamic Range Meter 1.1.1
log date: 2020-03-29 10:01:36

--------------------------------------------------------------------------------
Analyzed: Paolo Fresu Quintet feat. Erwin Vann / ReWanderlust
--------------------------------------------------------------------------------

DR         Peak         RMS     Duration Track
--------------------------------------------------------------------------------
DR13      -0.26 dB   -15.24 dB      5:57 01-Trunca e peltunta
DR12      -0.30 dB   -15.40 dB      8:15 02-Favole
DR12      -0.47 dB   -16.83 dB      4:31 03-Wanderlust
DR13      -0.29 dB   -15.22 dB      4:00 04-Geremeas
DR16      -0.43 dB   -20.12 dB      2:04 05-Variazione quattro
DR14      -0.31 dB   -18.45 dB      7:08 06-Children of 10000 Years
DR14      -0.31 dB   -16.11 dB      5:25 07-Appuntamento sul treno
DR14      -0.38 dB   -17.81 dB      5:41 08-Soul Eyes
DR14      -0.32 dB   -17.38 dB      3:38 09-Seven Up
DR13      -1.16 dB   -18.96 dB      5:12 10-Hush!
DR13      -0.31 dB   -16.77 dB      4:10 11-In quelle sere d'autunno
DR14      -0.24 dB   -18.12 dB      5:37 12-Simplicity
DR16      -0.29 dB   -20.17 dB      3:17 13-Touch Her Soft Lips and Part
--------------------------------------------------------------------------------

Number of tracks:  13
Official DR value: DR14

Samplerate:        44100 Hz
Channels:          2
Bits per sample:   24
Bitrate:           1184 kbps
Codec:             FLAC
================================================================================
Приватный:
Нет (DHT включён)
Размер:
567.15 Мб (594,695,859 байт) » файлов: 16
Участники:
1 раздают, 0 качают (1 участников всего)
Внешние участники:
9 раздают, 3 качают (12 участников всего) [ Обновить ]
Скорость:
0/c 127.48 Кб/c
No seeders - write personal message to M0p94ok. Нет сидеров - пишите в личку M0p94ok.
17:49
101
Нет комментариев. Ваш будет первым!