Поиск

2019 Karim Maurice - Odysseus Fantasy {Odradek} [24-44.1]

2019 Karim Maurice - Odysseus Fantasy {Odradek} [24-44.1]
Номер по каталогу:
ODRCD532
Носитель:
WEB
Формат:
PCM
Тип рипа:
tracks
Контейнер:
FLAC (*.flac)
Количество каналов:
2.0
Разрядность/ЧД:
24/44,1
Битрейт аудио:
lossless
Время звучания:
01:13:32
Наличие сканов:
только обложка
Страна-производитель диска (релиза):
France
Релизёр (источник):
M0p94ok
Лог проверки качества
foobar2000 1.3.16 / Dynamic Range Meter 1.1.1
log date: 2019-05-31 11:47:28

--------------------------------------------------------------------------------
Analyzed: Karim maurice / Odysseus Fantasy
--------------------------------------------------------------------------------

DR         Peak         RMS     Duration Track
--------------------------------------------------------------------------------
DR8        0.00 dB   -10.44 dB      7:19 01-Circe
DR9        0.00 dB   -11.18 dB     11:38 02-Blues for Nobody
DR9        0.00 dB   -11.55 dB     12:59 03-Calypso Symphony
DR11       0.00 dB   -14.52 dB      9:12 04-Weave & Undo
DR9        0.00 dB   -11.70 dB     11:13 05-Do Not Open the Aeolus's Bag
DR9       -0.01 dB   -12.42 dB     12:07 06-When the Sirens Sing
DR9        0.00 dB   -11.32 dB      9:04 07-Return to Ithaca
--------------------------------------------------------------------------------

Number of tracks:  7
Official DR value: DR9

Samplerate:        44100 Hz
Channels:          2
Bits per sample:   24
Bitrate:           1617 kbps
Codec:             FLAC
================================================================================
No seeders - write personal message to M0p94ok. Any questions - support@pro-jazz.com.
Нет сидеров - пишите в личку M0p94ok. Есть вопросы - support@pro-jazz.com
16:20
123
Нет комментариев. Ваш будет первым!