Поиск

1969 Gabor Szabo - 1969 {Skye} [24-44.1]

1969 Gabor Szabo - 1969 {Skye} [24-44.1]
Дата записи диска:
20 января - 24 января 1969
Место записи:
United Recording Studio, Los Angeles, CA, USA
Битрейт аудио:
lossless
Доп. инфо:

Формат записи/Источник записи: [TR24][OF]
Издание: Remastered
Год издания/переиздания диска: 1969
Издатель (лейбл): Skye Records
Продолжительность: 00:35:20
Наличие сканов в содержимом раздачи: Нет

Контейнер: FLAC (*.flac)
Тип рипа: tracks
Разрядность: 24/44,1
Количество каналов: 2.0

Источник (релизер): HIGHRESAUDIO

Лог проверки качества
foobar2000 1.4.3 / Dynamic Range Meter 1.1.1
log date: 2021-01-16 00:20:43

--------------------------------------------------------------------------------
Analyzed: Gabor Szabo / 1969
--------------------------------------------------------------------------------

DR         Peak         RMS     Duration Track
--------------------------------------------------------------------------------
DR7       -1.25 dB   -11.32 dB      2:41 01-Dear Prudence
DR8       -2.18 dB   -11.91 dB      2:45 02-Sealed With a Kiss
DR8       -1.90 dB   -11.95 dB      2:56 03-Both Sides Now
DR8       -1.25 dB   -10.89 dB      2:47 04-Walk Away Renee
DR8       -1.25 dB   -11.50 dB      3:40 05-You Won't See Me
DR6       -1.25 dB    -9.02 dB      4:02 06-Michael from Mountains
DR7       -1.25 dB    -9.72 dB      3:14 07-Stormy
DR7       -1.25 dB   -10.01 dB      2:31 08-In My Life
DR8       -1.25 dB   -11.35 dB      4:36 09-I've Just Seen a Face
DR9       -1.25 dB   -14.00 dB      2:23 10-Until It's Time for You to Go
DR8       -1.25 dB   -10.94 dB      3:50 11-Somewhere I Belong
--------------------------------------------------------------------------------

Number of tracks:  11
Official DR value: DR8

Samplerate:        44100 Hz
Channels:          2
Bits per sample:   24
Bitrate:           1426 kbps
Codec:             FLAC
================================================================================
No seeders - write personal message to M0p94ok. Any questions - support@pro-jazz.com.
Нет сидеров - пишите в личку M0p94ok. Есть вопросы - support@pro-jazz.com
23:40
118
Нет комментариев. Ваш будет первым!