Поиск

2015 VA - Venus The Amazing Super Audio CD Sampler Vol.8 {Venus} [DSD64]

2015 VA - Venus The Amazing Super Audio CD Sampler Vol.8 {Venus} [DSD64]
Стили:
Издатель (лейбл):
Номер по каталогу:
VHGD-103
Носитель:
WEB
Формат:
DSD
Тип рипа:
image
Контейнер:
FLAC (*.flac)
Количество каналов:
2.0
Разрядность/ЧД:
64 (2,8 MHz/1 Bit)
Битрейт аудио:
lossless
Время звучания:
01:28:23
Наличие сканов:
только обложка
Наличие водяных знаков:
нет
Релизёр (источник):
M0p94ok
Треклист:

01. I Will Wait For You - Eddie Higgins Trio《 M. Legrand 》
02. Dark Eyes - Massimo Farao' Trio《 Trad 》
03. I Hear A Rhapsody - Sir Roland Hanna Trio《 G. Fragos, J. Baker, D. Gasparre 》
04. Over The Rainbow - Claude Williamson Trio《 H. Arlen 》
05. Alone Together - Andrea Pozza Trio《 A. Schwartz 》
06. Waltz In D-flat Major, Op. 64-1 “Minute Waltz,” - Pepe Rivero Trio
07. Sweet Lady - Monty Alexander Trio《 M. Alexander 》
08. Autumn Leaves - Kenny Werner Trio《 J. Kosma 》
09. My Favorite Things - Dick Hyman Trio《 R. Rodgers 》
10. Someday My Prince Will Come - Harold Mabern Trio《 F. Charchill 》
11. Agua De Beber - Stefano Bollani Trio《 A. C. Jobim 》
12. Speak Low - Walter Bishop Jr. Trio《 K. Weill 》)
13. Turnaround - Giovanni Guidi Trio《 O. Coleman 》
14. When Your Lover Has Gone - New York Trio《 Einar A. Swan 》
15. Reginella - Danilo Rea Trio《 C. Baglioni 》

Доп. инфо:

Формат записи/Источник записи: [SACD-R][OF]
Наличие водяных знаков: Нет
Издание: Sampler
Год издания диска: 2015
Продолжительность: 01:28:23
Наличие сканов в содержимом раздачи: Только обложка альбома

Контейнер: ISO (*.iso)
Тип рипа: image
Разрядность: 64 (2,8 MHz/1 Bit)
Формат: DSD
Количество каналов: 2.0

Источник (релизер): venusrecords

Лог проверки качества
foobar2000 1.6.4 / Замер динамического диапазона (DR) 1.1.1
Дата отчёта:  2021-02-02 22:22:35

--------------------------------------------------------------------------------
Анализ:   Various Artists / VENUS THE AMAZING SUPER AUDIO CD SAMPLER VOL.8
--------------------------------------------------------------------------------

DR         Пики         RMS           Продолжительность трека
--------------------------------------------------------------------------------
DR8       -4.87 дБ   -15.48 дБ      5:45 01-I Will Wait For You
DR8       -3.86 дБ   -13.38 дБ      4:03 02-Dark Eyes
DR9       -4.25 дБ   -15.19 дБ      6:03 03-I Hear A Rhapsody
DR10      -4.11 дБ   -17.46 дБ      7:42 04-Over The Rainbow
DR8       -3.72 дБ   -14.37 дБ      5:17 05-Alone Together
DR8       -4.49 дБ   -14.05 дБ      4:59 06-Waltz In D-flat Major, Op. 64-1 Minute Waltz
DR8       -3.97 дБ   -14.42 дБ      5:02 07-Sweet Lady
DR9       -4.46 дБ   -15.46 дБ      6:43 08-Autumn Leaves
DR8       -4.11 дБ   -14.41 дБ      6:24 09-My Favorite Things
DR9       -4.61 дБ   -15.68 дБ      5:02 10-Someday My Prince Will Come
DR8       -3.76 дБ   -14.77 дБ      5:08 11-Agua De Beber
DR9       -3.85 дБ   -15.03 дБ      6:59 12-Speak Low
DR8       -4.88 дБ   -16.08 дБ      5:36 13-Turnaround
DR12      -5.15 дБ   -19.33 дБ      8:05 14-When Your Lover Has Gone
DR9       -3.95 дБ   -15.12 дБ      5:36 15-Reginella
--------------------------------------------------------------------------------

Количество треков: 15
Реальные значения DR: DR9

Частота:  2822400 Гц / Частота PCM: 352800 Гц
Каналов:  2
Разрядность:   1
Битрейт:  5645 кбит/с
Кодек:   DSD64
================================================================================
Приватный:
Нет (DHT включён)
Размер:
3.54 Гб (3,803,020,158 байт) » файлов: 3
Участники:
0 раздают, 0 качают (0 участников всего)
Внешние участники:
14 раздают, 5 качают (19 участников всего) [ Обновить ]
No seeders - write personal message to M0p94ok. Any questions - support@pro-jazz.com.
Нет сидеров - пишите в личку M0p94ok. Есть вопросы - support@pro-jazz.com
20:45
97
Нет комментариев. Ваш будет первым!