Поиск

2019 Jamaleònics - Jamaleònics {Jamaleònics} [24-44.1]

2019 Jamaleònics - Jamaleònics {Jamaleònics} [24-44.1]
Стили:
Дата издания диска:
17 мая 2019
Носитель:
WEB
Формат:
PCM
Тип рипа:
tracks
Контейнер:
FLAC (*.flac)
Количество каналов:
2.0
Разрядность/ЧД:
24/44,1
Битрейт аудио:
lossless
Время звучания:
00:25:15
Наличие сканов:
только обложка
Страна-производитель диска (релиза):
Spain
Релизёр (источник):
M0p94ok
Лог проверки качества
foobar2000 1.3.16 / Dynamic Range Meter 1.1.1
log date: 2019-05-19 18:06:26

--------------------------------------------------------------------------------
Analyzed: Jamaleònics / Jamaleònics
--------------------------------------------------------------------------------

DR         Peak         RMS     Duration Track
--------------------------------------------------------------------------------
DR13       0.00 dB   -17.03 dB      7:00 01-Domingo Mental
DR10       0.00 dB   -12.17 dB      5:03 02-Terra Tendra
DR12       0.00 dB   -13.93 dB      4:41 03-Fenta la Mà
DR12       0.00 dB   -13.24 dB      8:30 04-Yag
--------------------------------------------------------------------------------

Number of tracks:  4
Official DR value: DR12

Samplerate:        44100 Hz
Channels:          2
Bits per sample:   24
Bitrate:           1492 kbps
Codec:             FLAC
================================================================================
No seeders - write personal message to M0p94ok. Any questions - support@pro-jazz.com.
Нет сидеров - пишите в личку M0p94ok. Есть вопросы - support@pro-jazz.com
20:33
125
Нет комментариев. Ваш будет первым!