Поиск

2020 VA - Jazz Dispensary: Orange Sunset {Craft} [24-192]

2020 VA - Jazz Dispensary: Orange Sunset {Craft} [24-192]
Битрейт аудио:
lossless
Доп. инфо:

Формат записи/Источник записи: [TR24][OF]
Наличие водяных знаков: Нет
Издание: Compilation
Год издания диска: 2020
Издатель (лейбл): Craft Recordings
Продолжительность: 00:40:29
Наличие сканов в содержимом раздачи: Только обложка альбома
Контейнер: FLAC (*.flac)
Тип рипа: tracks
Разрядность: 24/192
Формат: PCM
Количество каналов: 2.0

Источник (релизер): qobuz.com

Лог проверки качества
foobar2000 1.6.3 / Замер динамического диапазона (DR) 1.1.1
Дата отчёта:  2021-01-22 19:17:04

--------------------------------------------------------------------------------
Анализ:   24 Carat Black / Jazz Dispensary: Orange Sunset (1)
          David Axelrod / Jazz Dispensary: Orange Sunset (2)
          Funk, Inc. / Jazz Dispensary: Orange Sunset (3)
          Johnny Hammond / Jazz Dispensary: Orange Sunset (4)
          Merl Saunders / Jazz Dispensary: Orange Sunset (5)
          Roger Glenn / Jazz Dispensary: Orange Sunset (6)
          The Blackbyrds / Jazz Dispensary: Orange Sunset (7)
--------------------------------------------------------------------------------

DR         Пики         RMS           Продолжительность трека
--------------------------------------------------------------------------------
DR11      -0.50 дБ   -13.64 дБ      7:15 05-24-Carat Black (Theme)
DR12      -0.50 дБ   -14.61 дБ      6:57 01-Everything Counts
DR11      -0.50 дБ   -13.57 дБ      4:28 07-Goodbye, So Long
DR11      -0.50 дБ   -13.31 дБ      5:19 03-Shifting Gears
DR11      -0.50 дБ   -13.16 дБ      5:23 06-Righteousness
DR10      -0.50 дБ   -12.42 дБ      4:06 04-Don’t Leave
DR11      -0.50 дБ   -14.14 дБ      7:01 02-Funky Junkie
--------------------------------------------------------------------------------

Количество треков: 7
Реальные значения DR: DR11

Частота:  192000 Гц
Каналов:  2
Разрядность:   24
Битрейт:  5365 кбит/с
Кодек:   FLAC
================================================================================
No seeders - write personal message to M0p94ok. Any questions - support@pro-jazz.com.
Нет сидеров - пишите в личку M0p94ok. Есть вопросы - support@pro-jazz.com
13:32
154
Нет комментариев. Ваш будет первым!