Поиск

2019 Harvest Group - Nacimiento Road {Igloo} [24-44.1]

2019 Harvest Group - Nacimiento Road {Igloo} [24-44.1]
Дата издания диска:
31 мая 2019
Номер по каталогу:
IGL307
Носитель:
WEB
Формат:
PCM
Тип рипа:
tracks
Контейнер:
FLAC (*.flac)
Количество каналов:
2.0
Разрядность/ЧД:
24/44,1
Битрейт аудио:
lossless
Время звучания:
00:46:57
Наличие сканов:
только обложка
Страна-производитель диска (релиза):
Belgium
Релизёр (источник):
M0p94ok
Лог проверки качества
foobar2000 1.3.16 / Dynamic Range Meter 1.1.1
log date: 2019-05-31 11:46:55

--------------------------------------------------------------------------------
Analyzed: Harvest Group / Nacimiento Road
--------------------------------------------------------------------------------

DR         Peak         RMS     Duration Track
--------------------------------------------------------------------------------
DR9        0.00 dB   -12.25 dB      3:59 01-Nacimiento
DR7        0.00 dB    -9.96 dB      5:33 02-Big Sur
DR9        0.00 dB   -11.30 dB      5:46 03-My Old Country
DR9        0.00 dB   -11.49 dB      4:15 04-Morning Phase
DR9        0.00 dB   -11.50 dB      2:48 05-Long Journey
DR9        0.00 dB   -13.20 dB      5:42 06-A Soul
DR8        0.00 dB   -10.26 dB      4:41 07-Arizona Trip
DR9        0.00 dB   -11.29 dB      2:25 08-November Song
DR8        0.00 dB   -11.45 dB      6:24 09-Sunny Spell
DR8        0.00 dB   -12.14 dB      4:29 10-Desolate
DR9       -0.28 dB   -12.68 dB      0:59 11-Outro
--------------------------------------------------------------------------------

Number of tracks:  11
Official DR value: DR9

Samplerate:        44100 Hz
Channels:          2
Bits per sample:   24
Bitrate:           1439 kbps
Codec:             FLAC
================================================================================
No seeders - write personal message to M0p94ok. Any questions - support@pro-jazz.com.
Нет сидеров - пишите в личку M0p94ok. Есть вопросы - support@pro-jazz.com
12:40
144
Нет комментариев. Ваш будет первым!