Поиск

2019 VA - Jazz Dispensary: The Dank D-Funk Blend {Craft} [24-96]

2019 VA - Jazz Dispensary: The Dank D-Funk Blend {Craft} [24-96]
Стили:
Битрейт аудио:
lossless
Треклист:

1. Funk, Inc. – Message From The Meters (6:11)
2. Charles Earland – Sing A Simple Song (5:46)
3. Richard “Groove ” Holmes – Song For My Father (6:10)
4. Houston Person – Cissy Strut (Edit) (3:50)
5. Bernard Purdie – Theme From Shaft (5:54)
6. Idris Muhammad – Super Bad (5:31)
7. Melvin Sparks – Thank You (Part 1) (3:10)
8. Boogaloo Joe Jones – I Feel The Earth Move (6:10)

Доп. инфо:

Формат записи/Источник записи: [TR24][OF]
Наличие водяных знаков: Нет
Издание: Compilation
Год издания диска: 2019
Издатель (лейбл): Craft Recordings
Продолжительность: 00:42:42
Наличие сканов в содержимом раздачи: Только обложка альбома

Контейнер: FLAC (*.flac)
Тип рипа: tracks
Разрядность: 24/96
Формат: PCM
Количество каналов: 2.0

Источник (релизер): qobuz.com

Лог проверки качества
foobar2000 1.6.3 / Замер динамического диапазона (DR) 1.1.1
Дата отчёта:  2021-01-22 19:14:51

--------------------------------------------------------------------------------
Анализ:   Various Artists / Jazz Dispensary: The Dank D-Funk Blend
--------------------------------------------------------------------------------

DR         Пики         RMS           Продолжительность трека
--------------------------------------------------------------------------------
DR10      -0.28 дБ   -12.26 дБ      6:11 01-Message From The Meters
DR11      -0.07 дБ   -12.58 дБ      5:46 02-Sing A Simple Song
DR10      -0.15 дБ   -12.54 дБ      6:10 03-Song For My Father
DR10      -0.14 дБ   -11.59 дБ      3:50 04-Cissy Strut (Edit)
DR11      -0.24 дБ   -12.97 дБ      5:54 05-Theme From Shaft
DR9        0.00 дБ   -10.67 дБ      5:31 06-Super Bad
DR8       -0.16 дБ    -9.60 дБ      3:10 07-Thank You (Part 1)
DR9       -0.22 дБ   -10.64 дБ      6:10 08-I Feel The Earth Move
--------------------------------------------------------------------------------

Количество треков: 8
Реальные значения DR: DR10

Частота:  96000 Гц
Каналов:  2
Разрядность:   24
Битрейт:  3374 кбит/с
Кодек:   FLAC
================================================================================
Приватный:
Нет (DHT включён)
Размер:
1020.93 Мб (1,070,527,568 байт) » файлов: 10
Участники:
0 раздают, 0 качают (0 участников всего)
Внешние участники:
5 раздают, 2 качают (7 участников всего) [ Обновить ]
No seeders - write personal message to M0p94ok. Any questions - support@pro-jazz.com.
Нет сидеров - пишите в личку M0p94ok. Есть вопросы - support@pro-jazz.com
12:13
99
Нет комментариев. Ваш будет первым!