Поиск

2015 Gordon Grdina - No Difference {Songlines} [24-88.2]

2015 Gordon Grdina - No Difference {Songlines} [24-88.2]
Дата записи диска:
13 июня - 14 июня 2012
Место записи:
Shapeshifter Lab, Brooklyn, NY; Water Music, Hoboken, NJ
Дата издания диска:
8 октября 2013
Носитель:
WEB
Формат:
PCM
Тип рипа:
tracks
Контейнер:
FLAC (*.flac)
Количество каналов:
2.0
Разрядность/ЧД:
24/88,2
Битрейт аудио:
lossless
Время звучания:
00:58:41
Наличие сканов:
буклет pdf
Наличие водяных знаков:
нет
Страна-производитель диска (релиза):
Canada
Релизёр (источник):
M0p94ok

Треклист:

1. Hope In Being 07:03
2. Limbo 05:49
3. The Throes 08:33
4. Leisure Park 04:49
5. Fast Times 05:54
6. Nayeli Joon 07:06
7. Cluster 05:18
8. Fierce Point 06:36
9. Visceral Voices 07:33

Лог проверки качества
foobar2000 1.6.2 / Dynamic Range Meter 1.1.1
log date: 2021-04-07 20:02:53

--------------------------------------------------------------------------------
Analyzed: Gordon Grdina / No Difference
--------------------------------------------------------------------------------

DR         Peak         RMS     Duration Track
--------------------------------------------------------------------------------
DR10      -0.20 dB   -13.91 dB      7:03 01-Hope in Being
DR10      -0.20 dB   -13.02 dB      5:50 02-Limbo
DR9       -0.20 dB   -11.86 dB      8:34 03-The Throes
DR9       -0.20 dB   -11.49 dB      4:49 04-Leisure Park
DR12      -0.20 dB   -15.93 dB      5:55 05-Fast Times
DR11      -0.20 dB   -14.49 dB      7:07 06-Nayeli Joon
DR9       -0.20 dB   -14.46 dB      5:19 07-Cluster
DR9       -0.20 dB   -12.09 dB      6:37 08-Fierce Point
DR9       -0.20 dB   -10.42 dB      7:34 09-Visceral Voices
--------------------------------------------------------------------------------

Number of tracks:  9
Official DR value: DR10

Samplerate:        88200 Hz
Channels:          2
Bits per sample:   24
Bitrate:           2942 kbps
Codec:             FLAC
================================================================================
Приватный:
Нет (DHT включён)
Размер:
1.01 Гб (1,084,520,649 байт) » файлов: 13
Участники:
1 раздают, 0 качают (1 участников всего)
Внешние участники:
--- [ Обновить ]
For power users only: no seeders - write to support@pro-jazz.com. Для power user: нет сидеров - пишите на support@pro-jazz.com.
20:07
21
Нет комментариев. Ваш будет первым!