Вы используете незарегистрированную версию компонента "Вкладки"!

Поиск

2017 VA - Venus The Amazing Super Audio CD Sampler Vol.17 {Venus} [DSD64]

2017 VA - Venus The Amazing Super Audio CD Sampler Vol.17 {Venus} [DSD64]
Издатель (лейбл):
Номер по каталогу:
VHGD-197
Битрейт аудио:
lossless
Доп. инфо:

Формат записи/Источник записи: [SACD-R][OF]
Наличие водяных знаков: Нет
Издание: Sampler
Год издания диска: 2017
Продолжительность: 01:21:02
Наличие сканов в содержимом раздачи: Да (сканы)

Контейнер: ISO (*.iso)
Тип рипа: image
Разрядность: 64(2,8 MHz/1 Bit)
Формат: DSD
Количество каналов: 2.0

Источник (релизер): venusrecords

Лог проверки качества
foobar2000 1.6.4 / Замер динамического диапазона (DR) 1.1.1
Дата отчёта:  2021-02-02 17:16:34

--------------------------------------------------------------------------------
Анализ:   Various Artists / VENUS THE AMAZING SUPER AUDIO CD SAMPLER VOL.17
--------------------------------------------------------------------------------

DR         Пики         RMS           Продолжительность трека
--------------------------------------------------------------------------------
DR11      -4.65 дБ   -18.55 дБ      8:17 01-An Affair To Remember
DR8       -3.72 дБ   -13.17 дБ      5:17 02-Tea For Two
DR11      -4.59 дБ   -18.30 дБ      3:10 03-Moon River
DR9       -5.17 дБ   -15.75 дБ      8:01 04-Cry Me A River
DR8       -4.57 дБ   -14.58 дБ      6:32 05-Love Is A Many-Splendored Thing
DR9       -4.87 дБ   -15.61 дБ      4:27 06-So Many Stars
DR8       -4.97 дБ   -15.49 дБ      4:56 07-We've Only Just Begun
DR8       -4.31 дБ   -14.40 дБ      7:13 08-I Left My Heart In San Francisco
DR9       -5.29 дБ   -16.53 дБ      3:22 09-Dark Eyes
DR7       -4.59 дБ   -14.57 дБ      6:25 10-Luiza
DR12      -5.01 дБ   -20.14 дБ      4:32 11-Star Crossed Lovers
DR7       -4.81 дБ   -13.32 дБ      4:59 12-The Shadow Of Your Smile
DR8       -4.05 дБ   -14.52 дБ      4:12 13-Cabin In The Sky
DR7       -4.72 дБ   -14.36 дБ      5:09 14-Don't Let Me Be Lonely Tonight
DR8       -4.67 дБ   -15.08 дБ      4:32 15-The Fool On The Hill
--------------------------------------------------------------------------------

Количество треков: 15
Реальные значения DR: DR9

Частота:  2822400 Гц / Частота PCM: 352800 Гц
Каналов:  2
Разрядность:   1
Битрейт:  5645 кбит/с
Кодек:   DSD64
================================================================================
Any questions - support@pro-jazz.com. Есть вопросы - support@pro-jazz.com
18:19
165
Нет комментариев. Ваш будет первым!