Вы используете незарегистрированную версию компонента "Вкладки"!

Поиск

2019 Fran Molina, Carlos González Martínez & Fernando Alandes - Fran Molina Trio {Piccolo} [24-48]

2019 Fran Molina, Carlos González Martínez & Fernando Alandes - Fran Molina Trio {Piccolo} [24-48]
Носитель:
WEB
Формат:
PCM
Тип рипа:
tracks
Контейнер:
FLAC (*.flac)
Количество каналов:
2.0
Разрядность/ЧД:
24/48
Битрейт аудио:
lossless
Время звучания:
00:44:54
Наличие сканов:
только обложка
Страна-производитель диска (релиза):
Spain
Релизёр (источник):
M0p94ok
Доп. инфо:

Завершив тур по VIII выпуску Джазового фестиваля в Дели, Ченнаи и Тривандрам, это «Трио Чемпионов мира» представляет свой проект в Мадриде. Фран Молина (гитара), Карлос Гонсалес (фортепиано) и Фернандо Аландес (ударные) объединили свою плодотворную карьеру в качестве музыкантов с всемирно известной историей с обширной учебной программой, которая включает концерты в более чем 40 странах. Fran Molina Trio - это смесь джаза, экзотики фламенко и мировой музыки, предложение ритмов и мелодий, которые они включили во время своих путешествий за последние несколько лет.

Лог проверки качества
foobar2000 1.3.16 / Dynamic Range Meter 1.1.1
log date: 2019-05-31 11:46:43

--------------------------------------------------------------------------------
Analyzed: Fran Molina, Carlos González Martínez & Fernando Alandes / Fran Molina Trio
--------------------------------------------------------------------------------

DR         Peak         RMS     Duration Track
--------------------------------------------------------------------------------
DR10      -0.07 dB   -12.65 dB     11:00 02-Membrillo
DR11      -0.24 dB   -15.44 dB      6:23 03-Blue In Green
DR10      -0.02 dB   -12.89 dB      7:26 04-Rhythm-A-Ning
DR11      -0.11 dB   -13.92 dB      7:38 05-Mr. Clean
DR12      -0.27 dB   -14.86 dB      2:49 06-All The Things You Are
--------------------------------------------------------------------------------

Number of tracks:  5
Official DR value: DR11

Samplerate:        48000 Hz
Channels:          2
Bits per sample:   24
Bitrate:           1342 kbps
Codec:             FLAC
================================================================================
Any questions - support@pro-jazz.com. Есть вопросы - support@pro-jazz.com
17:33
172
Нет комментариев. Ваш будет первым!