Поиск

2021 Katie Noonan - The Sweetest Taboo {ABC Jazz} [24-48]

2021 Katie Noonan - The Sweetest Taboo {ABC Jazz} [24-48]
Дата записи диска:
15 февраля - 17 февраля 2020
Место записи:
Australian Broadcasting Corporation's Ultimo Centre, Sydney
Дата издания диска:
8 мая 2020
Издатель (лейбл):
Номер по каталогу:
087 8447
Носитель:
WEB
Формат:
PCM
Тип рипа:
tracks
Контейнер:
FLAC (*.flac)
Количество каналов:
2.0
Разрядность/ЧД:
24/48
Битрейт аудио:
lossless
Время звучания:
01:01:53
Наличие сканов:
только обложка

Треклист:

01 - Don't Dream It's Over 04:59
02 - Blue 04:21
03 - If I Could 06:03
04 - Just the Way You Are 04:45
05 - True Colors 05:22
06 - Electric Blue 04:32
07 - I Wanna Dance with Somebody (Who Loves Me) 05:18
08 - When Tomorrow Comes 05:24
09 - Russians 04:41
10 - Sign Your Name 06:08
11 - Take on Me 03:53
12 - Running to Stand Still 06:27

Состав:
  • Double Bass – Phil Stack
  • Drums, Cymbal, Percussion – Evan Mannell
  • Engineer – Jason Blackwell, Phil Punch
  • Executive-Producer [For ABC Classics] – Hugh Robertson (4), Virginia Read
  • Liner Notes – Katie Noonan
  • Mastered By – Virginia Read
  • Mixed By – Paulie B*
  • Piano – Sam Keevers
  • Producer – Katie Noonan
  • Tenor Saxophone, Soprano Saxophone – Zac Hurren*
  • Voice – Katie Noonan
Лог проверки качества
foobar2000 1.4.3 / Dynamic Range Meter 1.1.1
log date: 2021-10-03 08:56:53
--------------------------------------------------------------------------------
Analyzed: Katie Noonan / The Sweetest Taboo
--------------------------------------------------------------------------------
DR         Peak         RMS     Duration Track
--------------------------------------------------------------------------------
DR12      -1.67 dB   -17.82 dB      4:59 01-Don't Dream It's Over
DR16      -0.03 dB   -18.42 dB      4:22 02-Blue
DR14      -0.03 dB   -15.98 dB      6:03 03-If I Could
DR12      -1.20 dB   -16.71 dB      4:45 04-Just the Way You Are
DR13      -5.17 dB   -22.83 dB      5:23 05-True Colors
DR14      -0.03 dB   -17.07 dB      4:33 06-Electric Blue
DR11      -3.18 dB   -18.68 dB      5:18 07-I Wanna Dance with Somebody (Who Loves Me)
DR13      -0.03 dB   -15.08 dB      5:24 08-When Tomorrow Comes
DR9       -3.42 dB   -16.94 dB      4:41 09-Russians
DR13      -0.52 dB   -17.28 dB      6:08 10-Sign Your Name
DR11      -5.24 dB   -22.07 dB      3:54 11-Take on Me
DR12      -0.03 dB   -14.64 dB      6:27 12-Running to Stand Still
--------------------------------------------------------------------------------
Number of tracks:  12
Official DR value: DR13
Samplerate:        48000 Hz
Channels:          2
Bits per sample:   24
Bitrate:           1442 kbps
Codec:             FLAC
================================================================================
21:33
522
Нет комментариев. Ваш будет первым!