Поиск

1962 Chris Barber's Jazz Band - Chris Barber In Budapest (2020) {RevOla} [24-96]

1962 Chris Barber's Jazz Band - Chris Barber In Budapest (2020) {RevOla} [24-96]
Дата записи диска:
7 июля 1962
Место записи:
Budapest, Hungary
Дата издания диска:
26 июня 2020
Издатель (лейбл):
Носитель:
WEB
Формат:
PCM
Тип рипа:
tracks
Контейнер:
FLAC (*.flac)
Количество каналов:
2.0
Разрядность/ЧД:
24/96
Битрейт аудио:
lossless
Время звучания:
00:33:43
Наличие сканов:
только обложка

Треклист:

01 - Lord, Lord, Lord 03:25
02 - Chiquita 04:11
03 - Mountains Of Mourne 02:44
04 - Trad Tavern 03:00
05 - Mama, He Treats Your Daughter Mean 02:37
06 - Ice Cream 04:22
07 - Mood Indigo 04:42
08 - Whistling Rufus 03:06
09 - Some Of These Days 03:08
10 - This Little Light Of Mine 02:28

Состав:

•    Chris Barber     Composer, Trombone
•    Graham Burbridge     Drums
•    Digby Fairweather     Liner Notes
•    Patrick Halcox     Trumpet, Vocals
•    Ottilie Patterson     Vocals
•    Dick Smith     Bass
•    Eddie Smith     Banjo
•    Ian Wheeler     Clarinet, Sax (Alto), Saxophone

Лог проверки качества
foobar2000 1.4.3 / Dynamic Range Meter 1.1.1
log date: 2021-10-03 16:43:47
--------------------------------------------------------------------------------
Analyzed: Chris Barber's Jazz Band / Chris Barber In Budapest
--------------------------------------------------------------------------------
DR         Peak         RMS     Duration Track
--------------------------------------------------------------------------------
DR10      -5.87 dB   -18.13 dB      3:25 01-Lord, Lord, Lord
DR13      -5.78 dB   -20.26 dB      4:11 02-Chiquita
DR11      -6.73 dB   -20.71 dB      2:44 03-Mountains Of Mourne
DR11      -7.19 dB   -20.42 dB      3:00 04-Trad Tavern
DR12      -7.81 dB   -21.36 dB      2:37 05-Mama, He Treats Your Daughter Mean
DR11      -5.68 dB   -19.66 dB      4:22 06-Ice Cream
DR13      -6.27 dB   -23.23 dB      4:42 07-Mood Indigo
DR11      -5.98 dB   -20.02 dB      3:06 08-Whistling Rufus
DR12      -6.83 dB   -21.75 dB      3:08 09-Some Of These Days
DR10      -8.16 dB   -21.01 dB      2:28 10-This Little Light Of Mine
--------------------------------------------------------------------------------
Number of tracks:  10
Official DR value: DR11
Samplerate:        96000 Hz
Channels:          2
Bits per sample:   24
Bitrate:           1331 kbps
Codec:             FLAC
================================================================================
По всем вопросам пишите личное сообщение пользователю M0p94ok.
10:50
164
Нет комментариев. Ваш будет первым!