Поиск

1969 Quincy Jones - Walking In Space (2021) {Verve} [24-192]

1969 Quincy Jones - Walking In Space (2021) {Verve} [24-192]
Дата записи диска:
18 июня - 19 июня 1969
Место записи:
Rudy Van Gelder Studio, Englewood Cliffs, New Jersey, USA
Издатель (лейбл):
Носитель:
WEB
Формат:
PCM
Тип рипа:
tracks
Контейнер:
FLAC (*.flac)
Количество каналов:
2.0
Разрядность/ЧД:
24/192
Битрейт аудио:
lossless
Время звучания:
00:34:51
Наличие сканов:
только обложка

Треклист:

01 - Dead End 03:55
02 - Walking In Space 12:03
03 - Killer Joe 05:10
04 - Love And Peace 05:48
05 - I Never Told You 04:18
06 - Oh, Happy Day 03:37

Состав:
 
  • Morgan Ames     Liner Notes
  • Ray Brown     Bass, Bass (Electric)
  • Jimmy Cleveland     Trombone
  • John Frosk     Flugelhorn, Trumpet
  • Eric Gale     Guitar
  • Paul Griffin     Piano, Piano (Electric)
  • Hilda Harris     Vocals
  • Freddie Hubbard     Trumpet
  • Marilyn Jackson     Vocals
  • Bob James     Arranger, Keyboards, Piano, Piano (Electric)
  • George Jeffers     Trombone
  • J.J. Johnson     Trombone
  • Quincy Jones     Arranger, Conductor, Producer, Trumpet, Vocals
  • Carlos Kase     Production Coordination, Research Coordination
  • Joel Kaye     Flute, Reeds, Saxophone, Woodwind
  • Peter Keepnews     Editing
  • Rahsaan Roland Kirk     Sax (Tenor), Woodwind
  • Jesse Kirkland     Vocals
  • Jamie Krents     Producer, Research
  • Hubert Laws     Flute, Sax (Tenor), Woodwind
  • Lloyd Michels     Flugelhorn, Trumpet
  • Norman Pride     Trombone
  • Bernard "Pretty" Purdie     Drums
  • Chuck Rainey     Bass, Bass (Electric)
  • Alan Raph     Trombone
  • Jerome Richardson     Sax (Soprano), Woodwind
  • Valerie Simpson     Vocals
  • Marvin Stamm     Flugelhorn, Trumpet
  • Maretha Stewart     Vocals
  • Zan Stewart     Liner Notes
  • Tony Studd     Trombone
  • Grady Tate     Drums
  • Creed Taylor     Producer
  • Toots Thielemans     Guitar, Harmonica
  • Rudy Van Gelder     Engineer
  • Dick Williams     Flugelhorn, Trumpet
  • Kai Winding     Trombone
  • John Wriggle     Producer, Research
  • Snooky Young     Flugelhorn, Trumpet
Доп. инфо:

Протеиновый Куинси Джонс вернулся в студию звукозаписи в качестве лидера после долгого пребывания в Голливуде с этим триумфально современным альбомом биг-бэнда. Он вновь прочно утвердился на джазовой базе биг-бэнда, но при этом обратил свой взор на поп-сцену и мир электрических инструментов (даже Рэй Браун здесь играет на превосходном электрическом басу). Дипломат также раскрывает свою сверхъестественную способность привлекать в качестве сайдменов самые громкие имена в джазе (Фредди Хаббард, Роланд Кирк, Хьюберт Лоус, Джей Джей Джонсон, Кай Виндинг и т.д.), качество, которое будет использоваться снова и снова в последующие десятилетия. Для любителей джаза главным событием станет длинный, драматический заглавный трек из бурно развивающегося в то время мюзикла "Волосы"; Хаббард просто шипит на приглушенной трубе, а наглый Кирк взрывает ритм-секцию под мощным ревербератором. Вы также получите классическую, развязную аранжировку Джонса "Killer Joe" Бенни Голсона - практически окончательную версию - и исполнение фрик-хита Эдвина Хокинса "Oh Happy Day", которое взрывается остроумием и искренней радостью. Это один из величайших пиков периода A&M Крида Тейлора, и он все еще звучит впечатляюще сегодня.

Лог проверки качества
foobar2000 1.4.3 / Dynamic Range Meter 1.1.1
log date: 2021-10-03 08:50:59
--------------------------------------------------------------------------------
Analyzed: Quincy Jones / Walking In Space
--------------------------------------------------------------------------------
DR         Peak         RMS     Duration Track
--------------------------------------------------------------------------------
DR12      -0.34 dB   -13.95 dB      3:55 01-Dead End
DR11      -0.34 dB   -14.23 dB     12:04 02-Walking In Space (Album Version)
DR10      -0.34 dB   -12.54 dB      5:10 03-Killer Joe
DR11      -0.34 dB   -13.71 dB      5:48 04-Love And Peace
DR10      -0.34 dB   -12.90 dB      4:18 05-I Never Told You
DR9       -0.34 dB   -13.02 dB      3:37 06-Oh, Happy Day
--------------------------------------------------------------------------------
Number of tracks:  6
Official DR value: DR10
Samplerate:        192000 Hz
Channels:          2
Bits per sample:   24
Bitrate:           5605 kbps
Codec:             FLAC
================================================================================
18:29
385
Нет комментариев. Ваш будет первым!