Поиск

2021 Kaori Kobayashi - Now and Forever {King} [24-96]

2021 Kaori Kobayashi - Now and Forever {King} [24-96]
Стили:
Место записи:
King Records Sekiguchidai Studio; Sound City Studio; Monogram Sounds
Дата издания диска:
10 февраля 2021
Издатель (лейбл):
Номер по каталогу:
KICJ-90846
Битрейт аудио:
lossless
Треклист:

01. Opening (Now and Forever) (1:01)
02. Kyle (3:39)
03. Mermaid (5:43)
04. Romantic Rain (5:26)
05. Seaside Memories (with Huckleback) (7:43)
06. Solar (with Huckleback) (6:18)
07. Airflow (4:14)
08. Shooting Star (Nagareboshi) (4:56)
09. Black Sapphire (4:39)
10. Back Street (5:19)
11. Bloom (4:54)
12. New School Etude (feat. Natalie Oliveri) (5:51)
13. I Raise My Hands Up (feat. Sian Kelly) (5:01)

Доп. инфо:

Формат записи/Источник записи: [TR24][OF]
Наличие водяных знаков: Нет
Год издания/переиздания диска: 2021
Продолжительность: 01:04:44
Наличие сканов в содержимом раздачи: Только обложка альбома

Контейнер: FLAC (*.flac)
Тип рипа: tracks
Разрядность: 24/96
Формат: PCM
Количество каналов: 2.0

Источник (релизер): redacted <-- e-onkyo

Лог проверки качества
foobar2000 1.6.4 / Dynamic Range Meter 1.1.1
log date: 2021-03-01 15:19:04

--------------------------------------------------------------------------------
Analyzed: Kaori Kobayashi / Now and Forever
--------------------------------------------------------------------------------

DR         Peak         RMS     Duration Track
--------------------------------------------------------------------------------
DR13      -3.26 dB   -18.40 dB      1:01 01-Opening (Now and Forever)
DR10      -0.01 dB   -10.93 dB      3:39 02-Kyle
DR9       -0.01 dB   -10.48 dB      5:43 03-Mermaid
DR10      -0.01 dB   -12.06 dB      5:26 04-Romantic Rain
DR9       -0.01 dB   -11.51 dB      7:43 05-Seaside Memories (with Huckleback)
DR9       -0.01 dB   -10.69 dB      6:18 06-Solar (with Huckleback)
DR9       -0.01 dB   -10.82 dB      4:14 07-Airflow
DR11      -0.06 dB   -15.08 dB      4:56 08-Shooting Star (Nagareboshi)
DR10      -0.01 dB   -11.86 dB      4:39 09-Black Sapphire
DR9       -0.01 dB   -10.68 dB      5:19 10-Back Street
DR9       -0.01 dB   -10.93 dB      4:54 11-Bloom
DR10      -0.01 dB   -12.20 dB      5:51 12-New School Etude (feat. Natalie Oliveri)
DR11      -0.01 dB   -12.42 dB      5:01 13-I Raise My Hands Up (feat. Sian Kelly)
--------------------------------------------------------------------------------

Number of tracks:  13
Official DR value: DR10

Samplerate:        96000 Hz
Channels:          2
Bits per sample:   24
Bitrate:           2848 kbps
Codec:             FLAC
================================================================================
Приватный:
Нет (DHT включён)
Размер:
1.26 Гб (1,349,441,687 байт) » файлов: 17
Участники:
0 раздают, 0 качают (0 участников всего)
Внешние участники:
9 раздают, 3 качают (12 участников всего) [ Обновить ]
No seeders - write personal message to M0p94ok. Any questions - support@pro-jazz.com.
Нет сидеров - пишите в личку M0p94ok. Есть вопросы - support@pro-jazz.com
18:48
43
Нет комментариев. Ваш будет первым!