Поиск

2016 Patrick Zimmerli Quartet - Shores Against Silence {Songlines} [24-44.1]

2016 Patrick Zimmerli Quartet - Shores Against Silence {Songlines} [24-44.1]
Стили:
Дата записи диска:
16 июня 1992
Место записи:
The Studio, New York City, NY, USA
Дата издания диска:
4 ноября 2016
Номер по каталогу:
SGL 1619-2
Носитель:
WEB
Формат:
PCM
Тип рипа:
tracks
Контейнер:
FLAC (*.flac)
Количество каналов:
2.0
Разрядность/ЧД:
24/44,1
Битрейт аудио:
lossless
Время звучания:
00:38:36
Наличие сканов:
буклет pdf
Страна-производитель диска (релиза):
Canada
Релизёр (источник):
M0p94ok
Доп. инфо:

Эта запись первого квартета нью-йоркского саксофониста-композитора Зиммерли (Кевин Хейс, фортепиано; Ларри Гренадье, бас; Том Рейни, ударные) в то время так и не вышла. Его первая выпущенная запись была с его Ensemble (Songlines, 1995, за которым последовали три других релиза Songlines). Теперь он вернулся в Shores и отредактировал его для выпуска в рамках подготовки к записи своего нового квартета Clockworks с участием Итана Айверсона из The Bad Plus (который будет выпущен на Songlines в 2017 году). "Shores" включает "The Paw", композицию Zimmerli, получившую первое место в первом конкурсе BMI / Thelonious Monk Institute. Как и другие композиции на пластинке, он основан на методах, которые Циммерли проанализировал в своих исследованиях таких композиторов, как Эллиот Картер и Милтон Бэббит. Вы можете услышать эти идеи в захватывающих дух интервалах и мелодических поворотах, а также они присутствуют в сложных ритмических структурах, с которыми музыкантам приходится договариваться. Но это не авангардные эксперименты как таковые. Музыка Циммерли всегда имеет сильные корни в традиционных формах, как бы далеко он ни протягивал их. И даже в самой контрастной или пуантилистической форме он по-прежнему использует традиционные гармонии, которые служат ложе для импровизаций музыкантов. Как и в случае с лучшей музыкой третьего потока, он добавляет искорку и блеск новизны современной джазовой традиции. Яркая, живая и изысканная, эта музыка, пожалуй, даже более актуальна для джаза сегодня, чем когда она создавалась. Карьера Зиммерли как композитора классической, а также классической / джазовой гибридной музыки принесла ему всемирное признание. С 2011 года он предпринял несколько проектов звукозаписи с Nonesuch, сочиняя или аранжировав музыку для Брэда Мелдау, Джошуа Редмана, Лучианы Соузы и других, в том числе для вечернего музыкального набора для Редмана и струнных, который будет выпущен в следующем году.

Лог проверки качества
foobar2000 1.3.16 / Dynamic Range Meter 1.1.1
log date: 2019-06-06 02:06:40

--------------------------------------------------------------------------------
Analyzed: Patrick Zimmerli Quartet / Shores Against Silence
--------------------------------------------------------------------------------

DR         Peak         RMS     Duration Track
--------------------------------------------------------------------------------
DR10      -0.28 dB   -13.64 dB      7:34 01-The Paw
DR12      -0.32 dB   -15.72 dB      6:40 02-Three Dreams of Repose
DR8       -0.27 dB   -10.62 dB      5:25 03-Hephaestus
DR9       -0.27 dB   -12.23 dB      6:48 04-Conceptualysis
DR9       -0.30 dB   -10.74 dB      5:46 05-Athena
DR9       -0.29 dB   -11.65 dB      6:26 06-Soft Blues
--------------------------------------------------------------------------------

Number of tracks:  6
Official DR value: DR9

Samplerate:        44100 Hz
Channels:          2
Bits per sample:   24
Bitrate:           1557 kbps
Codec:             FLAC
================================================================================
No seeders - write personal message to M0p94ok. Any questions - support@pro-jazz.com.
Нет сидеров - пишите в личку M0p94ok. Есть вопросы - support@pro-jazz.com
22:16
98
Нет комментариев. Ваш будет первым!