Поиск

1975 Chuck Mangione Quartet - Bellavia (2020) {A&M} [24-96]

1975 Chuck Mangione Quartet - Bellavia (2020) {A&M} [24-96]
Стили:
Место записи:
A&M Studios
Издатель (лейбл):
Битрейт аудио:
lossless

Треклист:

01 - Come Take A Ride With Me 04:26
02 - Listen To The Wind 07:03
03 - Carousel 07:36
04 - Bellavia 06:29
05 - Dance Of The Windup Toy 05:05
06 - Torreano 07:58

Доп. инфо:

Формат записи/Источник записи: [TR24][OF]
Издание: Remastered
Год издания/переиздания диска: 1975/2020
Продолжительность: 00:38:37
Наличие сканов в содержимом раздачи: Нет

Контейнер: FLAC (*.flac)
Тип рипа: tracks
Разрядность: 24/96
Количество каналов: 2.0

Источник (релизер): HIGHRESAUDIO

Лог проверки качества
foobar2000 1.4.3 / Dynamic Range Meter 1.1.1
log date: 2021-03-01 13:53:57

--------------------------------------------------------------------------------
Analyzed: The Chuck Mangione Quartet / Bellavia
--------------------------------------------------------------------------------

DR         Peak         RMS     Duration Track
--------------------------------------------------------------------------------
DR9       -0.34 dB   -12.19 dB      4:23 01-Come Take A Ride With Me
DR10      -0.34 dB   -12.81 dB      7:00 02-Listen To The Wind
DR12      -0.34 dB   -14.38 dB      7:36 03-Carousel
DR11      -0.34 dB   -15.80 dB      6:30 04-Bellavia
DR13      -0.34 dB   -16.34 dB      5:02 05-Dance Of The Windup Toy
DR10      -0.34 dB   -13.82 dB      7:58 06-Torreano
--------------------------------------------------------------------------------

Number of tracks:  6
Official DR value: DR11

Samplerate:        96000 Hz
Channels:          2
Bits per sample:   24
Bitrate:           2921 kbps
Codec:             FLAC
================================================================================
Приватный:
Нет (DHT включён)
Размер:
820.77 Мб (860,635,080 байт) » файлов: 11
Участники:
0 раздают, 0 качают (0 участников всего)
Внешние участники:
8 раздают, 2 качают (10 участников всего) [ Обновить ]
No seeders - write personal message to M0p94ok. Any questions - support@pro-jazz.com.
Нет сидеров - пишите в личку M0p94ok. Есть вопросы - support@pro-jazz.com
10:23
41
Нет комментариев. Ваш будет первым!