Поиск

2019 Raymond John - Real Feels Live Vol.2 {Sunnyside} [24-44.1]

2019 Raymond John - Real Feels Live Vol.2 {Sunnyside} [24-44.1]
Стили:
Дата записи диска:
14 мая 2018
Место записи:
Blue Whale, Los Angeles, CA, USA
Издатель (лейбл):
Номер по каталогу:
SSC 1535
Носитель:
WEB
Формат:
PCM
Тип рипа:
tracks
Контейнер:
FLAC (*.flac)
Количество каналов:
2.0
Разрядность/ЧД:
24/44,1
Битрейт аудио:
lossless
Время звучания:
00:53:57
Наличие сканов:
только обложка
Наличие водяных знаков:
нет
Страна-производитель диска (релиза):
USA
Релизёр (источник):
M0p94ok
Треклист:

1    Follower  9:42
2    Minnesota, WI  10:19
3    Be Still Intro  3:20
4    Be Still, My Soul  8:08
5    Joy Ride  12:37
6    The Times They Are A-Changin'  9:49

Лог проверки качества
foobar2000 1.3.16 / Dynamic Range Meter 1.1.1
log date: 2019-06-05 18:06:56

--------------------------------------------------------------------------------
Analyzed: Raymond John / Real Feels Live Vol.2
--------------------------------------------------------------------------------

DR         Peak         RMS     Duration Track
--------------------------------------------------------------------------------
DR6       -0.77 dB   -10.21 dB      9:42 01-Follower
DR7       -0.77 dB   -11.66 dB     10:19 02-Minnesota, WI
DR10      -5.59 dB   -19.93 dB      3:21 03-Be Still Intro
DR7       -0.79 dB   -11.86 dB      8:09 04-Be Still, My Soul
DR7       -0.76 dB   -11.11 dB     12:37 05-Joy Ride
DR8       -0.77 dB   -12.55 dB      9:50 06-The Times They Are A-Changin'
--------------------------------------------------------------------------------

Number of tracks:  6
Official DR value: DR8

Samplerate:        44100 Hz
Channels:          2
Bits per sample:   24
Bitrate:           1385 kbps
Codec:             FLAC
================================================================================
Приватный:
Нет (DHT включён)
Размер:
560.49 Мб (587,712,931 байт) » файлов: 8
Участники:
4 раздают, 0 качают (4 участников всего)
Внешние участники:
--- [ Обновить ]
No seeders - write personal message to M0p94ok. Any questions - support@pro-jazz.com.
Нет сидеров - пишите в личку M0p94ok. Есть вопросы - support@pro-jazz.com
10:43
49
Нет комментариев. Ваш будет первым!