Поиск

2021 Joe Chambers - Samba de Maracatu {Blue Note} [24-48]

2021 Joe Chambers - Samba de Maracatu {Blue Note} [24-48]
Стили:
Дата издания диска:
26 февраля 2021
Издатель (лейбл):
Битрейт аудио:
lossless

Треклист:

01 - You and the Night and the Music 05:26
02 - Circles 04:25
03 - Samba de Maracatu 04:36
04 - Visions 05:44
05 - Never Let Me Go 04:46
06 - Sabah el Nur 06:04
07 - Ecaroh 05:48
08 - New York State of Mind Rain 03:45
09 - Rio 04:21

Доп. инфо:

Формат записи/Источник записи: [TR24][OF]
Год издания/переиздания диска: 2021
Продолжительность: 00:44:55
Наличие сканов в содержимом раздачи: Нет

Контейнер: FLAC (*.flac)
Тип рипа: tracks
Разрядность: 24/48
Количество каналов: 2.0

Источник (релизер): HIGHRESAUDIO

Лог проверки качества
foobar2000 1.4.3 / Dynamic Range Meter 1.1.1
log date: 2021-02-26 17:43:58

--------------------------------------------------------------------------------
Analyzed: Joe Chambers / Samba de Maracatu
--------------------------------------------------------------------------------

DR         Peak         RMS     Duration Track
--------------------------------------------------------------------------------
DR9       -0.20 dB   -11.44 dB      5:26 01-You and the Night and the Music
DR9       -0.20 dB   -11.12 dB      4:24 02-Circles
DR9       -0.20 dB   -11.32 dB      4:36 03-Samba de Maracatu
DR8       -0.20 dB   -11.60 dB      5:44 04-Visions
DR7       -0.20 dB   -11.11 dB      4:48 05-Never Let Me Go
DR10      -0.20 dB   -12.01 dB      6:04 06-Sabah el Nur
DR8       -0.20 dB   -11.73 dB      5:49 07-Ecaroh
DR10      -0.20 dB   -11.52 dB      3:45 08-New York State of Mind Rain
DR9       -0.20 dB   -11.52 dB      4:21 09-Rio
--------------------------------------------------------------------------------

Number of tracks:  9
Official DR value: DR9

Samplerate:        48000 Hz
Channels:          2
Bits per sample:   24
Bitrate:           1686 kbps
Codec:             FLAC
================================================================================
Приватный:
Нет (DHT включён)
Размер:
560.63 Мб (587,864,448 байт) » файлов: 14
Участники:
0 раздают, 0 качают (0 участников всего)
Внешние участники:
16 раздают, 5 качают (21 участников всего) [ Обновить ]
No seeders - write personal message to M0p94ok. Any questions - support@pro-jazz.com.
Нет сидеров - пишите в личку M0p94ok. Есть вопросы - support@pro-jazz.com
11:25
49
Нет комментариев. Ваш будет первым!