Поиск

2015 Sammy Figueroa - Imaginary World {Savant} [24-44.1]

2015 Sammy Figueroa - Imaginary World {Savant} [24-44.1]
Стили:
Место записи:
Carriage House Studios, Stamford, CT
Дата издания диска:
26 июня 2015
Издатель (лейбл):
Номер по каталогу:
SCD 2151
Носитель:
WEB
Формат:
PCM
Тип рипа:
tracks
Контейнер:
FLAC (*.flac)
Количество каналов:
2.0
Разрядность/ЧД:
24/44,1
Битрейт аудио:
lossless
Время звучания:
00:53:21
Наличие сканов:
буклет pdf
Наличие водяных знаков:
нет
Страна-производитель диска (релиза):
USA
Релизёр (источник):
M0p94ok

Треклист:

1. Bittersweet  06:05
2. Waiting for You  05:23
3. He Didn't Know  07:14
4. Flow of the Universe  06:20
5. The Jumping Blue Jay  05:25
6. Imaginary World  05:56
7. Alegria  05:52
8. Mysterous Energy  06:55
9. Cuidado  04:11

Лог проверки качества
foobar2000 1.3.16 / Dynamic Range Meter 1.1.1
log date: 2019-04-09 17:39:56

--------------------------------------------------------------------------------
Analyzed: Sammy Figueroa / Imaginary World
--------------------------------------------------------------------------------

DR         Peak         RMS     Duration Track
--------------------------------------------------------------------------------
DR10      -0.77 dB   -13.23 dB      6:05 01-Bittersweet
DR10      -0.55 dB   -13.50 dB      5:23 02-Waiting for You
DR10      -0.80 dB   -14.40 dB      7:15 03-He Didn't Know
DR9       -0.79 dB   -12.95 dB      6:20 04-Flow of the Universe
DR9       -0.76 dB   -12.40 dB      5:26 05-The Jumping Blue Jay
DR9       -0.79 dB   -12.80 dB      5:57 06-Imaginary World
DR9       -0.80 dB   -12.35 dB      5:53 07-Alegria
DR10      -0.76 dB   -13.56 dB      6:55 08-Mysterous Energy
DR10      -0.77 dB   -13.13 dB      4:12 09-Cuidado
--------------------------------------------------------------------------------

Number of tracks:  9
Official DR value: DR10

Samplerate:        44100 Hz
Channels:          2
Bits per sample:   24
Bitrate:           1549 kbps
Codec:             FLAC
================================================================================
Приватный:
Нет (DHT включён)
Размер:
600.53 Мб (629,705,863 байт) » файлов: 12
Участники:
5 раздают, 0 качают (5 участников всего)
Внешние участники:
--- [ Обновить ]
No seeders - write personal message to M0p94ok. Any questions - support@pro-jazz.com.
Нет сидеров - пишите в личку M0p94ok. Есть вопросы - support@pro-jazz.com
12:48
80
13:26