Поиск

1980 Grover Washington, Jr. - Skylarkin' (2020) {UNI, Motown} [24-192]

1980 Grover Washington, Jr. - Skylarkin' (2020) {UNI, Motown} [24-192]
Битрейт аудио:
lossless

Треклист:

01 - Easy Loving You 07:17
02 - Bright Moments 06:26
03 - Snake Eyes 04:30
04 - I Can't Help It 06:30
05 - Love 05:18
06 - Open Your Mind (Wide) 06:02

Доп. инфо:

Формат записи/Источник записи: [TR24][OF]
Издание: Remastered
Год издания/переиздания диска: 1980/2020
Продолжительность: 00:36:03
Наличие сканов в содержимом раздачи: Нет

Контейнер: FLAC (*.flac)
Тип рипа: tracks
Разрядность: 24/192
Количество каналов: 2.0

Источник (релизер): HIGHRESAUDIO

Лог проверки качества
foobar2000 1.4.3 / Dynamic Range Meter 1.1.1
log date: 2021-03-02 14:56:25

--------------------------------------------------------------------------------
Analyzed: Grover Washington Jr. / Skylarkin'
--------------------------------------------------------------------------------

DR         Peak         RMS     Duration Track
--------------------------------------------------------------------------------
DR10      -0.20 dB   -11.69 dB      7:18 01-Easy Loving You
DR11      -0.20 dB   -12.21 dB      6:28 02-Bright Moments
DR10      -0.20 dB   -11.42 dB      4:29 03-Snake Eyes
DR10      -0.20 dB   -11.46 dB      6:27 04-I Can't Help It
DR11      -0.20 dB   -12.78 dB      5:18 05-Love
DR11      -0.20 dB   -13.94 dB      6:08 06-Open Your Mind (Wide)
--------------------------------------------------------------------------------

Number of tracks:  6
Official DR value: DR10

Samplerate:        192000 Hz
Channels:          2
Bits per sample:   24
Bitrate:           5675 kbps
Codec:             FLAC
================================================================================
Приватный:
Нет (DHT включён)
Размер:
1.48 Гб (1,585,096,538 байт) » файлов: 11
Участники:
0 раздают, 0 качают (0 участников всего)
Внешние участники:
11 раздают, 4 качают (15 участников всего) [ Обновить ]
No seeders - write personal message to M0p94ok. Any questions - support@pro-jazz.com.
Нет сидеров - пишите в личку M0p94ok. Есть вопросы - support@pro-jazz.com
16:13
49
Нет комментариев. Ваш будет первым!