Вы используете незарегистрированную версию компонента "Вкладки"!

Поиск

1959 Sarah Vaughan - Vaughan And Violins (2019) {RevOla} [24-44.1]

1959 Sarah Vaughan - Vaughan And Violins (2019) {RevOla} [24-44.1]
Стили:
Дата записи диска:
7 июля - 12 июля 1958
Место записи:
Paris, France
Издатель (лейбл):
Носитель:
WEB
Формат:
PCM
Тип рипа:
tracks
Контейнер:
FLAC (*.flac)
Количество каналов:
2.0
Разрядность/ЧД:
24/44,1
Битрейт аудио:
lossless
Время звучания:
00:35:39
Наличие сканов:
только обложка
Страна-производитель диска (релиза):
USA
Релизёр (источник):
M0p94ok
Лог проверки качества
foobar2000 1.6.2 / Dynamic Range Meter 1.1.1
log date: 2021-05-07 16:47:17

--------------------------------------------------------------------------------
Analyzed: Sarah Vaughan / Vaughan And Violins
--------------------------------------------------------------------------------

DR         Peak         RMS     Duration Track
--------------------------------------------------------------------------------
DR12      -3.30 dB   -19.76 dB      3:16 01-Please Be Kind
DR12      -4.93 dB   -19.64 dB      2:51 02-The Midnight Sun Will Never Set
DR11      -2.91 dB   -18.00 dB      3:23 03-Live For Love
DR12      -4.71 dB   -20.41 dB      3:03 04-Misty
DR11      -5.91 dB   -19.85 dB      3:40 05-I'm Lost
DR11      -5.23 dB   -19.74 dB      3:13 06-Love Me
DR12      -3.76 dB   -19.58 dB      3:31 07-That's All!
DR10      -5.04 dB   -18.88 dB      3:10 08-Day By Day
DR11      -5.43 dB   -20.79 dB      3:28 09-Gone With The Wind
DR11      -5.19 dB   -21.08 dB      3:40 10-I'll Close My Eyes
DR12      -5.52 dB   -22.36 dB      2:29 11-The Thrill Is Gone
--------------------------------------------------------------------------------

Number of tracks:  11
Official DR value: DR11

Samplerate:        44100 Hz
Channels:          2
Bits per sample:   24
Bitrate:           1305 kbps
Codec:             FLAC
================================================================================
Any questions - support@pro-jazz.com. Есть вопросы - support@pro-jazz.com
17:20
127
Нет комментариев. Ваш будет первым!