Поиск

2002 Enrico Rava - Renaissance (2016) {Venus} [DSD64 ISO]

2002 Enrico Rava - Renaissance (2016) {Venus} [DSD64 ISO]
Стили:
Издатель (лейбл):
Номер по каталогу:
VHGD-142
Битрейт аудио:
lossless
Доп. инфо:

Формат записи/Источник записи: [SACD-R][OF]
Наличие водяных знаков: Нет
Год издания/переиздания диска: 2002/2016
Продолжительность: 00:56:53
Наличие сканов в содержимом раздачи: Только обложка альбома

Контейнер: ISO (*.iso)
Тип рипа: image
Разрядность: 64(2,8 MHz/1 Bit)
Формат: DSD
Количество каналов: 2.0

Доп. информация: venusrecords
Источник (релизер): jazzy pic

Лог проверки качества
foobar2000 1.6.4 / Dynamic Range Meter 1.1.1
log date: 2021-03-03 21:03:52

--------------------------------------------------------------------------------
Analyzed: ENRICO RAVA / Reneissance
--------------------------------------------------------------------------------

DR         Peak         RMS     Duration Track
--------------------------------------------------------------------------------
DR6       -4.71 dB   -12.06 dB      6:10 01-It Ain't Necessarily So
DR6       -4.80 dB   -11.86 dB      5:47 02-Dear Old Stockholm
DR6       -5.14 dB   -13.07 dB      6:12 03-Good Bye
DR7       -4.79 dB   -13.11 dB      8:53 04-My Funny Valentine
DR6       -5.02 dB   -12.67 dB      5:51 05-Vision
DR6       -4.67 dB   -12.25 dB      6:53 06-Fran Dance
DR6       -5.36 dB   -13.10 dB      4:20 07-Nature Boy
DR6       -4.96 dB   -12.41 dB      7:02 08-Gnid
DR7       -5.27 dB   -13.16 dB      5:45 09-There's No You
--------------------------------------------------------------------------------

Number of tracks:  9
Official DR value: DR6

Samplerate:        2822400 Hz / PCM Samplerate: 352800 Hz
Channels:          2
Bits per sample:   1
Bitrate:           5645 kbps
Codec:             DSD64
================================================================================
No seeders - write personal message to M0p94ok. Any questions - support@pro-jazz.com.
Нет сидеров - пишите в личку M0p94ok. Есть вопросы - support@pro-jazz.com
17:38
125
Нет комментариев. Ваш будет первым!