Поиск

2017 Tom Rainey Obbligato - Float Upstream {Intakt} [24-44.1]

2017 Tom Rainey Obbligato - Float Upstream {Intakt} [24-44.1]
Стили:
Дата записи диска:
19 января 2017
Место записи:
Brooklyn Recording, Brooklyn, New York City, NY, USA
Дата издания диска:
15 сентября 2017
Издатель (лейбл):
Номер по каталогу:
292
Носитель:
WEB
Формат:
PCM
Тип рипа:
tracks
Контейнер:
FLAC (*.flac)
Количество каналов:
2.0
Разрядность/ЧД:
24/44,1
Битрейт аудио:
lossless
Время звучания:
00:43:21
Наличие сканов:
только обложка
Наличие водяных знаков:
нет
Страна-производитель диска (релиза):
USA
Релизёр (источник):
M0p94ok

Треклист:

1. Stella by Starlight 05:15
2. Beatrice 06:21
3. What Is This Thing Called Love 04:02
4. What’s New 10:35
5. There is no Greater Love 06:48
6. Float Upstream 05:23
7. I Fall in Love too Easily 04:53

Доп. инфо:

На этом втором диске со своей группой Obbligato Том Рейни удивляет стандартами и красивыми песнями о любви, такими как «Stella by Starlight», «What Is This Thing Called Love» или «I Fall in Love too Easily».

Том Рейни играл в группах с Тимом Берном, Фредом Хиршем и Крейгом Таборном, а также в собственном трио с Ингрид Лауброк и Мэри Халворсон. Для этого ансамбля он выбрал одних из лучших игроков Нью-Йорка: Ингрид Лауброк, Ральфа Алесси, Криса Дэвиса и Дрю Гресса.

Кристиан Брокинг пишет (на обложке): «В «Облигато» Рейни выдвигает на первый план двух знакомых знакомых из истории джаза - коллективную игру и импровизацию на стандартах - сам материал, известные мелодии и последовательности аккордов не слишком разобранны. С Облигато он хотел найти свой собственный способ сыграть вехи истории джаза».

Лог проверки качества
foobar2000 1.6.2 / Dynamic Range Meter 1.1.1
log date: 2021-05-07 18:30:18

--------------------------------------------------------------------------------
Analyzed: Tom Rainey Obbligato / Float Upstream
--------------------------------------------------------------------------------

DR         Peak         RMS     Duration Track
--------------------------------------------------------------------------------
DR9       -1.12 dB   -12.97 dB      5:15 01-Stella by Starlight: The Uninvited: Stella by Starlight
DR10      -1.09 dB   -14.84 dB      6:22 02-Beatrice
DR9       -1.10 dB   -11.25 dB      4:03 03-Wake up and Dream: Wake Up and Dream: What Is This Thing Called Love?
DR10      -1.17 dB   -13.96 dB     10:36 04-What's New
DR9       -1.06 dB   -12.50 dB      6:49 05-There Is No Greater Love
DR9       -1.13 dB   -13.03 dB      5:24 06-Float Upstream
DR11      -1.19 dB   -13.92 dB      4:54 07-Anchors Aweigh: I Fall in Love Too Easily
--------------------------------------------------------------------------------

Number of tracks:  7
Official DR value: DR10

Samplerate:        44100 Hz
Channels:          2
Bits per sample:   24
Bitrate:           1452 kbps
Codec:             FLAC
================================================================================
Приватный:
Нет (DHT включён)
Размер:
446.53 Мб (468,225,411 байт) » файлов: 9
Участники:
5 раздают, 0 качают (5 участников всего)
Внешние участники:
--- [ Обновить ]
No seeders - write personal message to M0p94ok. Any questions - support@pro-jazz.com.
Нет сидеров - пишите в личку M0p94ok. Есть вопросы - support@pro-jazz.com
18:40
53
Нет комментариев. Ваш будет первым!