Поиск

2014 Wayne Horvitz Royal Room Collective Music Ensemble - At The Reception {Songlines} [24-88.2]

2014 Wayne Horvitz Royal Room Collective Music Ensemble - At The Reception {Songlines} [24-88.2]
Стили:
Дата записи диска:
26 февраля - 27 февраля 2014
Место записи:
London Brdige Studios, Seattle, USA
Дата издания диска:
14 октября 2014
Номер по каталогу:
Songlines Recordings SGL 1609-2
Носитель:
WEB
Формат:
PCM
Тип рипа:
tracks
Контейнер:
FLAC (*.flac)
Количество каналов:
2.0
Разрядность/ЧД:
24/88,2
Битрейт аудио:
lossless
Время звучания:
01:24:02
Наличие сканов:
буклет pdf
Страна-производитель диска (релиза):
USA
Релизёр (источник):
M0p94ok
Лог проверки качества
foobar2000 1.3.16 / Dynamic Range Meter 1.1.1
log date: 2019-06-09 02:26:37

--------------------------------------------------------------------------------
Analyzed: Wayne Horvitz The Royal Room Collective Music Ensemble / At The Reception
--------------------------------------------------------------------------------

DR         Peak         RMS     Duration Track
--------------------------------------------------------------------------------
DR8       -0.10 dB   -11.22 dB      7:43 01-A Walk in the Rain
DR10      -0.10 dB   -12.93 dB      6:09 02-Forgiveness
DR8       -0.10 dB   -12.01 dB      8:24 03-Daylight
DR11      -0.10 dB   -14.30 dB      4:45 04-Trish
DR7       -0.10 dB    -9.17 dB      3:58 05-Barber Shop
DR8       -0.10 dB   -13.43 dB      5:03 06-Ironbound
DR11      -0.10 dB   -16.92 dB      2:45 07-Redux #2
DR9       -0.10 dB   -11.88 dB      9:21 08-Prepaid Funeral
DR10      -0.10 dB   -14.48 dB      7:03 09-First Light
DR8       -0.10 dB   -11.75 dB      6:39 10-Sweeter Than the Day
DR9       -0.10 dB   -12.34 dB      5:26 11-Disingenuous Firefight
DR9       -0.10 dB   -12.16 dB      5:31 12-At the Reception
DR13      -0.10 dB   -16.86 dB      1:20 13-Redux #4
DR9       -0.10 dB   -11.37 dB      5:07 14-After All These Years
DR10      -0.10 dB   -11.62 dB      4:56 15-In the Lounge
--------------------------------------------------------------------------------

Number of tracks:  15
Official DR value: DR9

Samplerate:        88200 Hz
Channels:          2
Bits per sample:   24
Bitrate:           2847 kbps
Codec:             FLAC
================================================================================
No seeders - write personal message to M0p94ok. Any questions - support@pro-jazz.com.
Нет сидеров - пишите в личку M0p94ok. Есть вопросы - support@pro-jazz.com
20:55
89
Нет комментариев. Ваш будет первым!