Поиск

2021 John Carroll Kirby - Septet {Stones Throw STH2429} [24-48]

2021 John Carroll Kirby - Septet {Stones Throw STH2429} [24-48]
Место записи:
Highland Park Sound, Los Angeles, CA, USA
Дата издания диска:
25 июня 2021
Носитель:
WEB
Формат:
PCM
Тип рипа:
tracks
Контейнер:
FLAC (*.flac)
Количество каналов:
2.0
Разрядность/ЧД:
24/48
Битрейт аудио:
lossless
Время звучания:
00:46:37
Наличие сканов:
только обложка

Треклист:

1. Rainmaker  07:42
2. P64 By My Side  04:11
3. Sensing Not Seeing  05:33
4. Swallow Tail  03:48
5. Weep  04:49
6. Jubilee Horns  07:00
7. The Quest of Chico Hamilton  04:28
8. Nucleo  09:02

Состав:
  • Bass – John Paul Maramba
  • Drums – Deantoni Parks
  • Keyboards – John Carroll Kirby
  • Mallets – Nick Mancini
  • Mastered By – Jake Viator
  • Mixed By – Tony Buchen
  • Percussion – David Leach
  • Producer – John Carroll Kirby
  • Producer [Additional] – Tony Buchen
  • Woodwind – Logan Hone, Tracy Wannomae
Лог проверки качества
foobar2000 1.6.6 / Dynamic Range Meter 1.1.1
log date: 2021-07-11 21:23:10

--------------------------------------------------------------------------------
Analyzed: John Carroll Kirby / Septet
--------------------------------------------------------------------------------

DR         Peak         RMS     Duration Track
--------------------------------------------------------------------------------
DR6       -0.26 dB    -8.08 dB      7:43 01-Rainmaker
DR5       -0.12 dB    -6.76 dB      4:12 02-P64 By My Side
DR7       -0.21 dB    -7.96 dB      5:33 03-Sensing Not Seeing
DR6       -0.26 dB    -7.79 dB      3:48 04-Swallow Tail
DR5       -0.24 dB    -6.86 dB      4:49 05-Weep
DR5       -0.22 dB    -7.34 dB      7:01 06-Jubilee Horns
DR6       -0.21 dB    -7.09 dB      4:28 07-The Quest of Chico Hamilton
DR6       -0.19 dB    -6.76 dB      9:02 08-Nucleo (Boy From the Prebiotic Birth)
--------------------------------------------------------------------------------

Number of tracks:  8
Official DR value: DR6

Samplerate:        48000 Hz
Channels:          2
Bits per sample:   24
Bitrate:           1583 kbps
Codec:             FLAC
================================================================================
По всем вопросам пишите личное сообщение пользователю M0p94ok.
17:06
265
Нет комментариев. Ваш будет первым!