Поиск

1962 Jacques Loussier - Play Bach No. 3 (2021) {Music Manager} [24-48]

1962 Jacques Loussier - Play Bach No. 3 (2021) {Music Manager} [24-48]
Издатель (лейбл):
Носитель:
WEB
Формат:
PCM
Тип рипа:
tracks
Контейнер:
FLAC (*.flac)
Количество каналов:
2.0
Разрядность/ЧД:
24/48
Битрейт аудио:
lossless
Время звучания:
00:33:00
Наличие сканов:
только обложка

Треклист:

01 - Concerto Italien - 1. Allegro 05:37
02 - Concerto Italien - 2. Andante 04:38
03 - Concerto Italien - 3. Finale 06:02
04 - Inventions a 2 Voix No. 1 02:23
05 - Inventions a 2 Voix No. 2 03:36
06 - Inventions a 2 Voix No. 5 02:45
07 - Inventions a 2 Voix No. 8 01:35
08 - Inventions a 2 Voix No. 15 01:16
09 - Fantasie Chromatique En Ut Mineur 05:08

Состав:
  • Bass – Pierre Michelot
  • Drums – Christian Garros
  • Arranger, Liner Notes, Piano – Jacques Loussier
Лог проверки качества
foobar2000 1.4.3 / Dynamic Range Meter 1.1.1
log date: 2021-07-08 17:11:36

--------------------------------------------------------------------------------
Analyzed: Jacques Loussier / Play Bach No. 3
--------------------------------------------------------------------------------

DR         Peak         RMS     Duration Track
--------------------------------------------------------------------------------
DR12      -0.07 dB   -17.25 dB      5:38 01-Concerto Italien - 1. Allegro
DR12      -0.04 dB   -16.74 dB      4:39 02-Concerto Italien - 2. Andante
DR13      -0.03 dB   -16.89 dB      6:03 03-Concerto Italien - 3. Finale
DR11      -0.04 dB   -14.96 dB      2:24 04-Inventions a 2 Voix No. 1
DR12      -0.06 dB   -15.40 dB      3:36 05-Inventions a 2 Voix No. 2
DR11      -0.01 dB   -15.08 dB      2:46 06-Inventions a 2 Voix No. 5
DR12      -0.02 dB   -16.27 dB      1:35 07-Inventions a 2 Voix No. 8
DR11      -0.06 dB   -16.69 dB      1:17 08-Inventions a 2 Voix No. 15
DR12      -0.01 dB   -17.24 dB      5:09 09-Fantasie Chromatique En Ut Mineur
--------------------------------------------------------------------------------

Number of tracks:  9
Official DR value: DR12

Samplerate:        48000 Hz
Channels:          2
Bits per sample:   24
Bitrate:           1100 kbps
Codec:             FLAC
================================================================================
23:17
603
Нет комментариев. Ваш будет первым!