Поиск

2019 Yakir Arbib - My Name Is Yakir {JMS Productions} [24-44.1]

2019 Yakir Arbib - My Name Is Yakir {JMS Productions} [24-44.1]
Стили:
Дата издания диска:
8 ноября 2019
Носитель:
WEB
Формат:
PCM
Тип рипа:
tracks
Контейнер:
FLAC (*.flac)
Количество каналов:
2.0
Разрядность/ЧД:
24/44,1
Битрейт аудио:
lossless
Наличие сканов:
только обложка

01    I Got Rhythm  4:28
02    I'm Confessin' (That I Love You)  4:08
03    Caravan  5:02
04    Going to and Returning From Not There  2:36
05    C Sharp Between Us  1:03
06    Scrapple From the Apple  2:44
07    Giant Steps  3:32
08    Rendez-vous à Paris  2:29
09    A Dusty Letter  4:07
10    Confirmation  3:19
11    Cherokee  3:36
12    Sun on Flowers  2:16

Состав:
  • Yakir Arbib — piano
Лог проверки качества
foobar2000 1.6.2 / Dynamic Range Meter 1.1.1
log date: 2021-12-20 09:50:06

--------------------------------------------------------------------------------
Analyzed: Yakir Arbib / My name is Yakir
--------------------------------------------------------------------------------

DR         Peak         RMS     Duration Track
--------------------------------------------------------------------------------
DR9       -0.13 dB   -12.12 dB      4:28 01-I Got Rhythm
DR11      -0.40 dB   -17.26 dB      4:09 02-I'm confessin (that I love You)
DR10      -0.14 dB   -12.42 dB      5:02 03-Caravan
DR13      -1.29 dB   -20.37 dB      2:36 04-Going to and returning from not there
DR11      -3.49 dB   -21.36 dB      1:04 05-C sharp between us
DR10      -0.14 dB   -12.85 dB      2:44 06-Scrapple from the apple
DR10      -0.14 dB   -13.84 dB      3:33 07-Giants steps
DR13      -2.71 dB   -21.86 dB      2:29 08-Rendez-vous à Paris
DR11      -1.15 dB   -17.69 dB      4:08 09-A dusty letter
DR10      -0.17 dB   -12.62 dB      3:20 10-Confirmation
DR10      -0.14 dB   -12.80 dB      3:36 11-Cherokee
DR14      -4.21 dB   -24.00 dB      2:17 12-Sun on flowers
--------------------------------------------------------------------------------

Number of tracks:  12
Official DR value: DR11

Samplerate:        44100 Hz
Channels:          2
Bits per sample:   24
Bitrate:           1068 kbps
Codec:             FLAC
================================================================================
Приватный:
Да (DHT отключён)
Размер:
341.47 Мб (358,057,247 байт) » файлов: 14
Участники:
1 раздают, 0 качают (1 участников всего)
Внешние участники:
--- [ Обновить ]
15:42
476
Нет комментариев. Ваш будет первым!