Вы используете незарегистрированную версию компонента "Вкладки"!

Поиск

2021 Joachim Kuhn - Touch the Light {ACT Music} [24-48]

2021 Joachim Kuhn - Touch the Light {ACT Music} [24-48]
Дата записи диска:
1 августа - 1 октября 2019
Место записи:
Salinas Studio, Ibiza, Spain
Издатель (лейбл):
Битрейт аудио:
lossless
Доп. инфо:

Формат записи/Источник записи: [TR24][OF]
Наличие водяных знаков: Нет
Год издания/переиздания диска: 2021
Продолжительность: 00:47:14
Наличие сканов в содержимом раздачи: Буклет PDF

Контейнер: FLAC (*.flac)
Тип рипа: tracks
Разрядность: 24/48
Формат: PCM
Количество каналов: 2.0

Источник (релизер): highresaudio

Лог проверки качества
foobar2000 1.6.4 / Dynamic Range Meter 1.1.1
log date: 2021-02-28 23:45:18

--------------------------------------------------------------------------------
Analyzed: Joachim Kuhn / Touch the Light
--------------------------------------------------------------------------------

DR         Peak         RMS     Duration Track
--------------------------------------------------------------------------------
DR11      -0.72 dB   -15.00 dB      2:54 01-Warm Canto
DR12      -0.72 dB   -16.93 dB      3:56 02-Allegretto, Symphony No.7
DR12      -0.73 dB   -16.13 dB      3:39 03-A Remark You Made
DR12      -0.79 dB   -16.29 dB      3:17 04-Sintra
DR12      -0.75 dB   -16.34 dB      2:29 05-Ponta de Areia
DR12      -0.72 dB   -16.01 dB      3:50 06-Redemption Song
DR13      -0.72 dB   -16.81 dB      3:39 07-Touch the Light
DR12      -0.72 dB   -15.08 dB      3:14 08-Fever
DR13      -0.72 dB   -16.62 dB      2:56 09-Blue Velvet
DR12      -0.72 dB   -16.27 dB      4:41 10-Stardust
DR12      -0.72 dB   -15.93 dB      4:39 11-Purple Rain
DR12      -0.72 dB   -16.33 dB      4:45 12-Last Tango in Paris
DR13      -0.72 dB   -17.82 dB      3:15 13-Peace Piece
--------------------------------------------------------------------------------

Number of tracks:  13
Official DR value: DR12

Samplerate:        48000 Hz
Channels:          2
Bits per sample:   24
Bitrate:           1338 kbps
Codec:             FLAC
================================================================================
Any questions - support@pro-jazz.com. Есть вопросы - support@pro-jazz.com
15:15
107
Нет комментариев. Ваш будет первым!