Поиск

2019 Les Evadés - Black Mamba {Super Ranch} [24-48]

2019 Les Evadés - Black Mamba {Super Ranch} [24-48]
Стили:
Место записи:
La Caverne, Québec, Canada
Дата издания диска:
31 мая 2019
Номер по каталогу:
SUPR1001
Носитель:
WEB
Формат:
PCM
Тип рипа:
tracks
Контейнер:
FLAC (*.flac)
Количество каналов:
2.0
Разрядность/ЧД:
24/48
Битрейт аудио:
lossless
Время звучания:
00:41:33
Наличие сканов:
только обложка
Наличие водяных знаков:
нет
Страна-производитель диска (релиза):
Canada
Релизёр (источник):
M0p94ok

Треклист:

01. La Holi. 5:29
02. Anita's Dance. 3:19
03. La Niña. 4:49
04. Black Mamba. 4:19
05. Harmattan. 3:16
06. Laïka. 4:15
07. Caligula. 4:40
08. Alschitt. 1:57
09. Experiment in Terror. 5:21
10. Ana Mora. 4:08

Лог проверки качества
foobar2000 1.3.16 / Dynamic Range Meter 1.1.1
log date: 2019-05-31 11:48:09

--------------------------------------------------------------------------------
Analyzed: Les Evadés / Black Mamba
--------------------------------------------------------------------------------

DR         Peak         RMS     Duration Track
--------------------------------------------------------------------------------
DR10      -0.01 dB   -12.04 dB      5:29 01-La Holi
DR8       -0.01 dB   -11.56 dB      3:20 02-Anita's Dance
DR10      -0.01 dB   -12.54 dB      4:50 03-La Niña
DR8        0.00 dB    -9.26 dB      4:20 04-Black Mamba
DR9       -0.01 dB   -10.92 dB      3:17 05-Harmattan
DR10      -0.01 dB   -13.02 dB      4:16 06-Laïka
DR7       -0.01 dB    -9.66 dB      4:40 07-Caligula
DR15      -0.70 dB   -21.93 dB      1:58 08-Alschitt
DR7       -0.01 dB    -8.42 dB      5:22 09-Experiment in Terror
DR9       -0.01 dB   -14.02 dB      4:08 10-Ana Mora
--------------------------------------------------------------------------------

Number of tracks:  10
Official DR value: DR9

Samplerate:        48000 Hz
Channels:          2
Bits per sample:   24
Bitrate:           1635 kbps
Codec:             FLAC
================================================================================
Приватный:
Нет (DHT включён)
Размер:
511.05 Мб (535,871,497 байт) » файлов: 12
Участники:
1 раздают, 0 качают (1 участников всего)
Внешние участники:
--- [ Обновить ]
No seeders - write personal message to M0p94ok. Нет сидеров - пишите в личку M0p94ok.
14:26
39
Нет комментариев. Ваш будет первым!