Поиск

2015 Steve Nelson Jazz Quartet - Easy Living (2018) {Venus} [DSD64 ISO]

2015 Steve Nelson Jazz Quartet - Easy Living (2018) {Venus} [DSD64 ISO]
Дата записи диска:
5 июля 2015
Место записи:
Riverside Studio, Torino, Italy
Издатель (лейбл):
Номер по каталогу:
VHGD-282
Битрейт аудио:
lossless
Доп. инфо:

Формат записи/Источник записи: [SACD-R][OF]
Наличие водяных знаков: Нет
Год издания/переиздания диска: 2015/2018
Продолжительность: 01:00:18
Наличие сканов в содержимом раздачи: Только обложка альбома

Контейнер: ISO (*.iso)
Тип рипа: image
Разрядность: 64(2,8 MHz/1 Bit)
Формат: DSD
Количество каналов: 2.0

Источник: venusrecords

Лог проверки качества
foobar2000 1.6.4 / Dynamic Range Meter 1.1.1
log date: 2021-02-28 19:55:01

--------------------------------------------------------------------------------
Analyzed: STEVE NELSON JAZZ QUARTET / Easy Living
--------------------------------------------------------------------------------

DR         Peak         RMS     Duration Track
--------------------------------------------------------------------------------
DR6       -5.38 dB   -15.14 dB      8:42 01-Poor Butterfly
DR8       -5.17 dB   -15.70 dB      8:13 02-Beautiful Friendship
DR7       -5.28 dB   -15.63 dB      7:26 03-Lady Be Good
DR7       -5.29 dB   -14.69 dB      8:16 04-Willow Weep For Me
DR7       -5.17 dB   -13.80 dB      5:49 05-Blues Up
DR6       -5.11 dB   -12.92 dB      3:55 06-East Of The Sun
DR10      -5.54 dB   -18.67 dB      6:40 07-Easy Living
DR6       -5.20 dB   -13.34 dB      6:43 08-Samba De Orfeu
DR7       -5.08 dB   -12.95 dB      4:34 09-Crazeology
--------------------------------------------------------------------------------

Number of tracks:  9
Official DR value: DR7

Samplerate:        2822400 Hz / PCM Samplerate: 352800 Hz
Channels:          2
Bits per sample:   1
Bitrate:           5645 kbps
Codec:             DSD64
================================================================================
No seeders - write personal message to M0p94ok. Any questions - support@pro-jazz.com.
Нет сидеров - пишите в личку M0p94ok. Есть вопросы - support@pro-jazz.com
13:59
99
Нет комментариев. Ваш будет первым!